img image001 image001 image001 image001 image001 image001 image001 image001 image001 image001 image001 image001 image001 image001 image001

Planets Sun Sun Sun
Статистика раздачи
Автор: PriZraK | Размер: 1.43 ГБ | Добавлен: 15 фев 2014
Раздают: 164    Качают: 10
Скачать торрент
Скачать торрент
Описание торрента

СообщениеДобавлено: 15 фев 2014 




Информация о фильме
Название: Любовь в большом городе 3
Год выхода: 2013
Жанр: Комедия, приключения, фантастика
Режиссёр: Марюс Вайсберг, Дэвид Додсон
В ролях: Алексей Чадов, Владимир Зеленский, Светлана Ходченкова, Вера Брежнева, Вилле Хаапасало, Настя Задорожная, Филипп Киркоров, Шэрон Стоун, Игорь Жижикин, Екатерина Климова

О фильме: В жизни каждого отца, рано или поздно наступает момент, когда жена улетает на заслуженный отдых, а он остаётся один на один с собственным ребёнком. Казалось бы - ничего сложного! Также подумали Игорь, Артём и Сауна, даже не подозревая, какой «водопад» приключений накроет их с головой. Измученные «прелестями» отцовства, парни встречают своего старого приятеля Святого Валентина. Снимая стресс за бутылочкой виски, ребята в шутку мечтают о том, чтобы их дети поскорее стали взрослыми. А на утро, шокированные папаши понимают - их мечта сбылась и теперь они на собственной шкуре поймут, что значит поговорка: "Большие дети - большие проблемы…"



Выпущено: Россия, Украина, First Breath Films, Kvartal 95 Studio, Leopolis
Продолжительность: 01:18:38

Файл
Качество: WEB-DLRip (Исходник: WEB-DL (720p))
Видео: XviD, 2218 Кбит/с, 720х400 (16:9), 25 кадр/с
Аудио: Dolby AC3, 48000 Гц, 384 Кбит/с, 6 каналов (5.1)



Автор Rip'а - ivandubskoj

General
Complete name : Lyubov'.v.bol'shom.gorode.2013.WEB-DLRip.avi
Format : AVI
Format/Info : Audio Video Interleave
File size : 1.43 GiB
Duration : 1h 18mn
Overall bit rate : 2 610 Kbps
Movie name : Любовь в большом городе (2013) WEB-DLRip
Recorded date : 31.01.2014
Writing application : VirtualDubMod 1.5.10.3 (build 2550/release)
Writing library : VirtualDubMod build 2550/release
Copyright : rip by ivandubskoj

Video
ID : 0
Format : MPEG-4 Visual
Format profile : Advanced Simple@L5
Format settings, BVOP : 2
Format settings, QPel : No
Format settings, GMC : No warppoints
Format settings, Matrix : Custom
Codec ID : XVID
Codec ID/Hint : XviD
Duration : 1h 18mn
Bit rate : 2 218 Kbps
Width : 720 pixels
Height : 400 pixels
Display aspect ratio : 16:9
Frame rate : 25.000 fps
Color space : YUV
Chroma subsampling : 4:2:0
Bit depth : 8 bits
Scan type : Progressive
Compression mode : Lossy
Bits/(Pixel*Frame) : 0.308
Stream size : 1.22 GiB (85%)
Writing library : XviD 73

Audio
ID : 1
Format : AC-3
Format/Info : Audio Coding 3
Mode extension : CM (complete main)
Codec ID : 2000
Duration : 1h 18mn
Bit rate mode : Constant
Bit rate : 384 Kbps
Channel(s) : 6 channels
Channel positions : Front: L C R, Side: L R, LFE
Sampling rate : 48.0 KHz
Bit depth : 16 bits
Compression mode : Lossy
Stream size : 216 MiB (15%)
Alignment : Split accross interleaves
Interleave, duration : 64 ms (1.60 video frames)
Interleave, preload duration : 500 ms
Title : Russian




   Похожие торренты   Торрент   Размер 
В этой теме нет новых непрочитанных сообщений. Любовь в большом городе 3 (2013) DVD5 от ivandubskoj

907 | 89

3.68 ГБ

В этой теме нет новых непрочитанных сообщений. Любовь в большом городе 3 (2013) WEB-DLRip от Scarabey

837 | 67

1.45 ГБ

В этой теме нет новых непрочитанных сообщений. Любовь в большом городе: Трилогия (2009-2013) BDRip, WEB-DLRip-AVC 720р

135 | 165

11.22 ГБ

В этой теме нет новых непрочитанных сообщений. Любовь в большом городе 3 (2014) WEB-DLRip-AVC От Deadmauvlad

364 | 16

1.45 ГБ

В этой теме нет новых непрочитанных сообщений. Любовь в большом городе 3 [01-08 из 08] (2014) WEB-DLRip (AVC) от Generalfilm | Расширенная ТВ-версия

65 | 50

4.38 ГБ

В этой теме нет новых непрочитанных сообщений. Любовь в большом городе 3 [01-08 из 08] (2014) WEB-DLRip от MediaClub | Расширенная ТВ-версия

47 | 73

5.08 ГБ

В этой теме нет новых непрочитанных сообщений. Любовь в большом городе 3 [01-06 из 08] (2014) WEB-DLRip от MediaClub | Расширенная ТВ-версия

14 | 8

3.81 ГБ




Вы не можете начинать темы
Вы не можете отвечать на сообщения
Вы не можете редактировать свои сообщения
Вы не можете удалять свои сообщения
Вы не можете добавлять вложения

Перейти:  
Для Мосгорсуда, Роскомнадзора и рекламодателей: mosgorsud-torrent[собачка]yandex.ru
 Вход
ppkBB3cker v.2 © 2008-2014 @ PPK
[ Time : 0.046s | 14 Queries | GZIP : Off ]

Торрент трекер RUTOR.IN, Не можете зайти на rutor.org? Какой новый адрес рутор? Какое зеркало рутор? Не работает rutor.org и зеркала? Тогда наш торрент специально для вас. Rutor.in неофициальное зеркало rutor. В случае если у Вас заблокирован rutor или вдруг Вы не можете на него зайти, то Вы без труда сможете скачать бесплатно и без рекламы последние новинки кино, игр, сериалов и прочего у нас, на Rutor.in. Не нужно использовать прокси, чтобы зайти на рутор, достаточно воспользоваться нашим ресурсом. Все новые фильмы, игры, сериалы, книги и музыка за 2013 и 2014 годы через торрент бесплатно. Скачивайте фильмы в хорошем качестве, игры для пк, xbox, playstation без регистрации. У нас вы найдете новые Зарубежные сериалы и Русские сериалы 2013, 2014, 2015 годов. Оставайтесь с нами, качайте любимые фильмы, игры, сериалы, книги и музыку.