img image001 image001 image001 image001 image001 image001 image001 image001 image001 image001 image001 image001 image001 image001 image001

Planets Sun Sun Sun
Статистика раздачи
Автор: PriZraK | Размер: 1.46 ГБ | Добавлен: 15 фев 2014
Раздают: 68    Качают: 15
Скачать торрент
Скачать торрент
Описание торрента

СообщениеДобавлено: 15 фев 2014 


#77
Страна: СССР
Производство: Гостелерадио, Одесская киностудия

Жанр: драма, приключения
Год выпуска: 1983
Продолжительность: 02:16:45 (01:07:20 + 01:09:25)

Перевод: не требуется
Оригинальная аудиодорожка: русский
Cубтитры: нет

Режиссер: Александр Павловский

В ролях:
Дмитрий Харатьян, Борислав Брондуков, Александр Демьяненко, Александр Соловьев, Регимантас Адомайтис, Константин Григорьев, Эдуард Марцевич, Виктор Ильичев, Екатерина Дурова, Лев Перфилов, Юрий Дубровин, Виктор Павловский, Армен Джигарханян...

Описание:
Приключенческий фильм по мотивам одноименной повести Александра Козачинского. Это ностальгический, лиричный и пронзительный фильм о послереволюционной Одессе. О мальчике — гимназисте, мечтающем о карьере Шерлока Холмса и попадающем в тот завораживающий кошмар, который принято называть горнилом революции.
Здесь причудливо и органично сочетаются юмор и романтика, жестокая правда и эксцентрика — и пронзительным серебряным горном звучит голос молодого Дмитрия Харатьяна, сыгравшего в этом фильме свою лучшую роль…





Исходник: DVD9 R5
Тип релиза: DVDRip
Контейнер: AVI

Видео: 704x528 (4:3), 25 fps, XviD ~ 1388 kbps avg, 0.149 bit/pixel
Аудио: 48 kHz, MP3 2.0, 128 kbps

Раздача от:
Общее
Полное имя : Zelenyy.furgon.1983.DVDRip-1,46_[New-team]_by_AVP_Studio.avi
Формат : AVI
Формат/Информация : Audio Video Interleave
Размер файла : 735 Мбайт
Продолжительность : 1 ч. 7 м.
Общий поток : 1526 Кбит/сек
Программа кодирования : VirtualDubModRus 1.5.10.2 (build 2542/release)
Библиотека кодирования : VirtualDubMod build 2542/release

Видео
Идентификатор : 0
Формат : MPEG-4 Visual
Профиль формата : Advanced Simple@L5
Параметр BVOP формата : 1
Параметр QPel формата : Нет
Параметр GMC формата : Без точки перехода
Параметр матрицы формата : Выборочная
Идентификатор кодека : XVID
Идентификатор кодека/Подсказка : XviD
Продолжительность : 1 ч. 7 м.
Битрейт : 1388 Кбит/сек
Ширина : 704 пикселя
Высота : 528 пикселей
Соотношение сторон : 4:3
Частота кадров : 25,000 кадров/сек
Цветовое пространство : YUV
Субдискретизация насыщенности : 4:2:0
Битовая глубина : 8 бит
Тип развёртки : Прогрессивная
Метод сжатия : С потерями
Бит/(Пиксели*Кадры) : 0.149
Размер потока : 668 Мбайт (91%)
Библиотека кодирования : XviD 73

Аудио
Идентификатор : 1
Формат : MPEG Audio
Версия формата : Version 1
Профиль формата : Layer 3
Идентификатор кодека : 55
Идентификатор кодека/Подсказка : MP3
Продолжительность : 1 ч. 7 м.
Вид битрейта : Постоянный
Битрейт : 128 Кбит/сек
Каналы : 2 канала
Частота : 48,0 КГц
Метод сжатия : С потерями
Размер потока : 61,7 Мбайт (8%)
Выравнивание : Соединение по промежуткам
Продолжительность промежутка : 40 мс. (1,00 видеокадр)
Время предзагрузки промежутка : 504 мс.
Библиотека кодирования : LAME3.99r
Настройки программы : -m s -V 4 -q 2 -lowpass 17 -b 128



В основу повести Александра Козачинского «Зеленый фургон» легла история юности Евгения Катаева (Петрова), соавтора романов «Двенадцать стульев» и «Золотой телёнок», и Козачинского. Катаев (Петров) стал прототипом Володи Патрикеева, а Козачинский — конокрада Красавчика.
Александр Козачинский служил инспектором уголовного розыска в Балтском уезде. Он бросил службу, похитив вместе c дезертиром, немецким колонистом Георгием Фечем, фургон с зерном, предназначенный в качестве взятки начальнику Балтского отдела милиции. Организовал банду, в которую вошли немецкие колонисты и бывшие колчаковцы. Банда, насчитывавшая свыше 20 членов, базировалась в районе поселка немецких колонистов Люстдорф, антисоветски настроенные жители которого оказывали поддержку бандитам. Александр Козачинский лично планировал и руководил разбойными нападениями на районные конторы, поезда и зажиточных хозяев. Он пользовался большим авторитетом у бандитов и местного населения, особенно у женщин. В 1922 году при попытке продать на Староконном рынке Одессы лошадей, угнанных из лазарета 51-й стрелковой дивизии, Козачинский и часть его людей попадали в милицейскую засаду. Во время погони с перестрелкой Козачинский узнал в одном из инспекторов уголовного розыска своего гимназического друга Евгения Катаева (Петрова), которому и сдался.
Бытует версия, что только преждевременная смерть помешала Владимиру Семеновичу Высоцкому стать режиссёром фильма «Зеленый фургон», который должен был запускаться в производство на Одесской киностудии в 1980 году. Действительно Высоцкий, участвовавший в радиоспектакле «Зеленый фургон», собирался дебютировать как кинорежиссёр с этим фильмом. Но уже в начале июля он говорил близким друзьям, что от этой идеи отказался: мол, «всё равно не разрешат снять, как хочется — значит, не стоит и связываться».
Первоначально предполагалось, что все песни в картине будет исполнять Валерий Леонтьев.
Режиссёр Александр Павловский по ряду причин несколько месяцев отказывался снимать «Зелёный фургон», однако вынужден был согласиться, так как после выхода его картины «Трест, который лопнул» попал на телевидении в «чёрный список».
На постоялом дворе Виктор Прокофьевич Шестаков читает отрывки из поэмы Александра Блока «Двенадцать».



   Похожие торренты   Торрент   Размер 
В этой теме нет новых непрочитанных сообщений. Зеленый фургон (1983) DVDRip от New-Team

33 | 5

2.19 ГБ

В этой теме нет новых непрочитанных сообщений. Зеленый фургон (1983) DVDRip-AVC от New-Team

120 | 15

2.19 ГБ

В этой теме нет новых непрочитанных сообщений. Зеленый фургон (1983) DVDRip

35 | 7

1.37 ГБ

В этой теме нет новых непрочитанных сообщений. Зеленый фургон (1983) DVDRip-AVC от ExKinoRay

187 | 7

2.73 ГБ

В этой теме нет новых непрочитанных сообщений. Зеленый фургон (1983) DVDRip-AVC то UAGet

8 | 3

2.17 ГБ

В этой теме нет новых непрочитанных сообщений. Зеленый фургон (1983) DVD5

7 | 4

4.17 ГБ

В этой теме нет новых непрочитанных сообщений. Зеленый фургон (1983) DVD9 by гаврила

2 | 6

5.66 ГБ




Вы не можете начинать темы
Вы не можете отвечать на сообщения
Вы не можете редактировать свои сообщения
Вы не можете удалять свои сообщения
Вы не можете добавлять вложения

Перейти:  
Для Мосгорсуда, Роскомнадзора и рекламодателей: mosgorsud-torrent[собачка]yandex.ru
 Вход
ppkBB3cker v.2 © 2008-2014 @ PPK
[ Time : 0.036s | 14 Queries | GZIP : Off ]

Торрент трекер RUTOR.IN, Не можете зайти на rutor.org? Какой новый адрес рутор? Какое зеркало рутор? Не работает rutor.org и зеркала? Тогда наш торрент специально для вас. Rutor.in неофициальное зеркало rutor. В случае если у Вас заблокирован rutor или вдруг Вы не можете на него зайти, то Вы без труда сможете скачать бесплатно и без рекламы последние новинки кино, игр, сериалов и прочего у нас, на Rutor.in. Не нужно использовать прокси, чтобы зайти на рутор, достаточно воспользоваться нашим ресурсом. Все новые фильмы, игры, сериалы, книги и музыка за 2013 и 2014 годы через торрент бесплатно. Скачивайте фильмы в хорошем качестве, игры для пк, xbox, playstation без регистрации. У нас вы найдете новые Зарубежные сериалы и Русские сериалы 2013, 2014, 2015 годов. Оставайтесь с нами, качайте любимые фильмы, игры, сериалы, книги и музыку.