img image001 image001 image001 image001 image001 image001 image001 image001 image001 image001 image001 image001 image001 image001 image001

Planets Sun Sun Sun
Статистика раздачи
Автор: PriZraK | Размер: 1.46 ГБ | Добавлен: 15 фев 2014
Раздают: 43    Качают: 6
Скачать торрент
Скачать торрент
Описание торрента

СообщениеДобавлено: 15 фев 2014 




Информация о фильме
Название: Не родись красивым...
Год выхода: 2008
Жанр: Комедия, драма, мелодрама, приключения
Режиссёр: Максим Паперник
В ролях: Дмитрий Паламарчук, Мария Аронова, Игорь Письменный, Дарья Юргенс (Лесникова), Татьяна Бондаренко, Антон Васильев, Виталий Куклин, Андрей Бабенко, Альберт Афонин, Светлана Васильева

О фильме: Совладельцы рекламного агентства «Мажор» Роберт и Марина живут в предвкушении крупной сделки с японским бизнесменом Сасаки. Этот контракт, как и многие другие, — заслуга исключительно Марины, которая вынуждена работать за двоих, пока ее коллега Роберт — гений рекламы и невероятно удачливый бизнесмен — с головой окунулся в омут тусовок и любовных авантюр.
Перед самым приездом господина Сасаки Роберт неожиданно исчезает. Конечно, у него были враги и завистники, но могли ли они зайти так далеко? Марина бросается на поиски компаньона, и неожиданно под колесами ее машины оказывается грязный оборванец, отдельными чертами напоминающий Роберта. К каким неожиданным последствиям приведет это столкновение?..



Выпущено: Форвард-фильм, Студия "Панорама", Россия
Продолжительность:
Перевод: Не требуется
Язык: Русский

Файл
Качество: DVDRip
Видео: XviD, 2001 Кбит/с, 704x384 (16:9), 25 кадр/с
Аудио: Dolby АC3, 192 Кбит/с, 48000 Гц, 2 канала (Стерео)



Автор рипа - ivandubskoj

General
Complete name : Ne.rodis'.krasivim.2008.DVDRip.avi
Format : AVI
Format/Info : Audio Video Interleave
File size : 1.46 GiB
Duration : 1h 35mn
Overall bit rate : 2 201 Kbps
Movie name : Не родись красивым (2008) DVDRip
Recorded date : 01.02.2014
Writing application : VirtualDubMod 1.5.10.3 (build 2550/release)
Writing library : VirtualDubMod build 2550/release
Copyright : rip by ivandubskoj

Video
ID : 0
Format : MPEG-4 Visual
Format profile : Advanced Simple@L5
Format settings, BVOP : 1
Format settings, QPel : No
Format settings, GMC : No warppoints
Format settings, Matrix : Default (MPEG)
Codec ID : XVID
Codec ID/Hint : XviD
Duration : 1h 35mn
Bit rate : 2 001 Kbps
Width : 704 pixels
Height : 384 pixels
Display aspect ratio : 16:9
Frame rate : 25.000 fps
Color space : YUV
Chroma subsampling : 4:2:0
Bit depth : 8 bits
Scan type : Progressive
Compression mode : Lossy
Bits/(Pixel*Frame) : 0.296
Stream size : 1.33 GiB (91%)
Writing library : XviD 73

Audio
ID : 1
Format : AC-3
Format/Info : Audio Coding 3
Mode extension : CM (complete main)
Codec ID : 2000
Duration : 1h 35mn
Bit rate mode : Constant
Bit rate : 192 Kbps
Channel(s) : 2 channels
Channel positions : Front: L R
Sampling rate : 48.0 KHz
Bit depth : 16 bits
Compression mode : Lossy
Stream size : 131 MiB (9%)
Alignment : Split accross interleaves
Interleave, duration : 64 ms (1.60 video frames)
Interleave, preload duration : 500 ms
Title : Russian





   Похожие торренты   Торрент   Размер 
В этой теме нет новых непрочитанных сообщений. Не родись красивым (2009) DVDRip

22 | 2

1.37 ГБ

В этой теме нет новых непрочитанных сообщений. Не родись красивой [200 серий из 200] (2005-2006) DVDRip

213 | 228

78.25 ГБ

В этой теме нет новых непрочитанных сообщений. Поездка к морю (2008) DVDRip от ivandubskoj

15 | 2

105.1 МБ

В этой теме нет новых непрочитанных сообщений. 80 минут / 80 Minutes (2008) DVDRip от ivandubskoj | P2

42 | 32

703.56 МБ

В этой теме нет новых непрочитанных сообщений. Поездка к морю (2008) DVDRip от ivandubskoj

2 | 3

99.82 МБ

В этой теме нет новых непрочитанных сообщений. Снежный ангел (2008) DVDRip от ivandubskoj

121 | 11

1.46 ГБ

В этой теме нет новых непрочитанных сообщений. Снежный ангел (2008) DVDRip от ivandubskoj

24 | 5

746.69 МБ




Вы не можете начинать темы
Вы не можете отвечать на сообщения
Вы не можете редактировать свои сообщения
Вы не можете удалять свои сообщения
Вы не можете добавлять вложения

Перейти:  
Для Мосгорсуда, Роскомнадзора и рекламодателей: mosgorsud-torrent[собачка]yandex.ru
 Вход
ppkBB3cker v.2 © 2008-2014 @ PPK
[ Time : 0.050s | 14 Queries | GZIP : Off ]

Торрент трекер RUTOR.IN, Не можете зайти на rutor.org? Какой новый адрес рутор? Какое зеркало рутор? Не работает rutor.org и зеркала? Тогда наш торрент специально для вас. Rutor.in неофициальное зеркало rutor. В случае если у Вас заблокирован rutor или вдруг Вы не можете на него зайти, то Вы без труда сможете скачать бесплатно и без рекламы последние новинки кино, игр, сериалов и прочего у нас, на Rutor.in. Не нужно использовать прокси, чтобы зайти на рутор, достаточно воспользоваться нашим ресурсом. Все новые фильмы, игры, сериалы, книги и музыка за 2013 и 2014 годы через торрент бесплатно. Скачивайте фильмы в хорошем качестве, игры для пк, xbox, playstation без регистрации. У нас вы найдете новые Зарубежные сериалы и Русские сериалы 2013, 2014, 2015 годов. Оставайтесь с нами, качайте любимые фильмы, игры, сериалы, книги и музыку.