img image001 image001 image001 image001 image001 image001 image001 image001 image001 image001 image001 image001 image001 image001 image001

Planets Sun Sun Sun
Статистика раздачи
Автор: PriZraK | Размер: 1.12 ГБ | Добавлен: 15 фев 2014
Раздают: 79    Качают: 11
Скачать торрент
Скачать торрент
Описание торрента

СообщениеДобавлено: 15 фев 2014 




Информация о фильме
Оригинальное название: Агентство «Мечта»
Год выхода: 2008
Жанр: Детектив
Режиссер: Георгий Шенгелия
В ролях: Евгения Бурдихина, Елена Котихина, Елена Полякова, Роман Чора, Александр Олешко, Елизавета Арзамасова, Полина Лунегова, Максим Важов, Юрий Воробьёв, Андрей Ильин, Олег Кныш, Денис Меленчук, Антон Преснов, Александр Числов, Лариса Негреева-Цесляк, Айдар Закиров

О фильме:
История о трёх подругах. Принципиальная, талантливая Женька — журналистка, практичная и боевая Катя — курсантка элитного военного училища, романтичная, тихая Наташа — библиотекарь. Кажется будущее подруг предопределено. Но неожиданный поворот судьбы заставляет девушек круто изменить свою жизнь и открыть в себе новые способности. Когда Женька и Наташа теряют работу, а Катю отчисляют из элитного училища, девушки идут на авантюру и организовывают частное детективное агенство. Без опыта и связей, кажется, у них нет никаких шансов на успех. Подруги совершают ошибки, проходят через неудачи и разочарования. Но настойчивость, смекалка и взаимовыручка помогают им достичь поставленной цели. Неожиданно для себя самих, подруги добиваются успеха.


Страна: Россия, Украина
Студия: Star-Media
Продолжительность: 01:16:37
Язык: Русский

Файл
Кодек: XviD
Качество: DVDRip
Видео: 1900 Кбит/с, 720x400, 25.000 кадр/с
Звук: (АС3, 2 ch, 192 Кбит/с)

Семпл


Общее
Полное имя : Agenstvo.mechta.2008.DVDRip.MediaClub.avi
Формат : AVI
Формат/Информация : Audio Video Interleave
Размер файла : 1,12 Гбайт
Продолжительность : 1 ч. 16 м.
Общий поток : 2102 Кбит/сек
Название фильма : MediaClub
Программа кодирования : VirtualDubMod 1.5.10.2 (build 2540/release)
Библиотека кодирования : VirtualDubMod build 2540/release

Видео
Идентификатор : 0
Формат : MPEG-4 Visual
Профиль формата : Advanced Simple@L5
Параметр BVOP формата : 2
Параметр QPel формата : Нет
Параметр GMC формата : Без точки перехода
Параметр матрицы формата : Default (MPEG)
Идентификатор кодека : XVID
Идентификатор кодека/Подсказка : XviD
Продолжительность : 1 ч. 16 м.
Битрейт : 1900 Кбит/сек
Ширина : 720 пикселей
Высота : 400 пикселей
Соотношение сторон : 16:9
Частота кадров : 25,000 кадров/сек
Цветовое пространство : YUV
Субдискретизация насыщенности : 4:2:0
Битовая глубина : 8 бит
Тип развёртки : Прогрессивная
Метод сжатия : С потерями
Бит/(Пиксели*Кадры) : 0.264
Размер потока : 1,02 Гбайт (90%)
Библиотека кодирования : XviD 65

Аудио
Идентификатор : 1
Формат : AC-3
Формат/Информация : Audio Coding 3
Расширение режима : CM (complete main)
Параметр Endianness формата : Big
Идентификатор кодека : 2000
Продолжительность : 1 ч. 16 м.
Вид битрейта : Постоянный
Битрейт : 192 Кбит/сек
Каналы : 2 канала
Расположение каналов : Front: L R
Частота : 48,0 КГц
Битовая глубина : 16 бит
Метод сжатия : С потерями
Размер потока : 105 Мбайт (9%)
Выравнивание : Разделение по промежуткам
Продолжительность промежутка : 40 мс. (1,00 видеокадр)
Время предзагрузки промежутка : 500 мс.


Релиз от:



   Похожие торренты   Торрент   Размер 
В этой теме нет новых непрочитанных сообщений. Мечта / Bi-mong (2008) DVDRip

7 | 3

1.36 ГБ

В этой теме нет новых непрочитанных сообщений. Мечта / Bi-Mong (2008) DVDRip

2 | 2

700.02 МБ

В этой теме нет новых непрочитанных сообщений. Агентство знакомств Сирано / Брачное агентство «Сирано» / Yeonaejojakdan: Shirano / Dating Agency: Cyrano [01-16 из 16] (2013) HDTVRip | L2

6 | 7

9 ГБ

В этой теме нет новых непрочитанных сообщений. Аризонская мечта / Сон Аризоны / Arizona Dream (1993) HDDVDRip-AVC от MediaClub

27 | 7

3.98 ГБ

В этой теме нет новых непрочитанных сообщений. Детективное Агентство: Шустрый Жучок - Антология (2006-2008) PC

18 | 11

3.65 ГБ

В этой теме нет новых непрочитанных сообщений. Аризонская мечта / Сон Аризоны / Arizona Dream (1993) HDDVDRip 1080p от MediaClub | P

11 | 5

13.78 ГБ

В этой теме нет новых непрочитанных сообщений. Аризонская мечта / Сон Аризоны / Arizona Dream (1993) HDDVDRip 720p от MediaClub | P

19 | 4

7.35 ГБ




Вы не можете начинать темы
Вы не можете отвечать на сообщения
Вы не можете редактировать свои сообщения
Вы не можете удалять свои сообщения
Вы не можете добавлять вложения

Перейти:  
Для Мосгорсуда, Роскомнадзора и рекламодателей: mosgorsud-torrent[собачка]yandex.ru
 Вход
ppkBB3cker v.2 © 2008-2014 @ PPK
[ Time : 0.066s | 14 Queries | GZIP : Off ]

Торрент трекер RUTOR.IN, Не можете зайти на rutor.org? Какой новый адрес рутор? Какое зеркало рутор? Не работает rutor.org и зеркала? Тогда наш торрент специально для вас. Rutor.in неофициальное зеркало rutor. В случае если у Вас заблокирован rutor или вдруг Вы не можете на него зайти, то Вы без труда сможете скачать бесплатно и без рекламы последние новинки кино, игр, сериалов и прочего у нас, на Rutor.in. Не нужно использовать прокси, чтобы зайти на рутор, достаточно воспользоваться нашим ресурсом. Все новые фильмы, игры, сериалы, книги и музыка за 2013 и 2014 годы через торрент бесплатно. Скачивайте фильмы в хорошем качестве, игры для пк, xbox, playstation без регистрации. У нас вы найдете новые Зарубежные сериалы и Русские сериалы 2013, 2014, 2015 годов. Оставайтесь с нами, качайте любимые фильмы, игры, сериалы, книги и музыку.