img image001 image001 image001 image001 image001 image001 image001 image001 image001 image001 image001 image001 image001 image001 image001

Planets Sun Sun Sun
Статистика раздачи
Автор: PriZraK | Размер: 2.05 ГБ | Добавлен: 15 фев 2014
Раздают: 111    Качают: 24
Скачать торрент
Скачать торрент
Описание торрента

СообщениеДобавлено: 15 фев 2014 




Информация о фильме
Оригинальное название: Новогодний брак
Год выхода: 2012
Жанр: Мелодрама, комедия
Режиссер: Армен Адилханян
В ролях: Андрей Соколов, Анна Невская, Ирина Медведева, Сесиль Свердлова, Олег Шкловский, Александр Песков, Карен Мартиросян, Наталья Громушкина, Людмила Гаврилова, Дмитрий Клепацкий, Элеонора Шашкова, Сергей Погосов, Джульетта Погосова, Наталия Медведева

О фильме:
У каждого свой Новый год. Дед Мороз, Снегурочка, хлопушки, игрушки, карнавал… нет на празднике одного главного героя - мамы. Достаточно незамысловатая, легкая комедия с хорошими актерами, забавными комиксами, снятая в нескольких декорациях. Местами наивно, местами смешно, но в общем «Новогодний брак» это хорошая доза новогоднего настроения для всей семьи.



Страна: Россия
Студия: Berg Sound
Продолжительность: 01:30:24

Файл
Кодек: MPEG-4 AVC
Качество: HDTVRip 720p
Видео: 2800 Кбит/с, 1280x720, 25.000 кадр/с
Звук: Русский (АС3, 6 ch, 448 Кбит/с)

Семпл


Общее
Полное имя : Novogodnij.brak.2012.x264.HDTVRip(720p).MediaClub.mkv
Формат : Matroska
Версия формата : Version 2
Размер файла : 2,05 Гбайт
Продолжительность : 1 ч. 30 м.
Общий поток : 3249 Кбит/сек
Дата кодирования : UTC 2014-02-03 19:24:39
Программа кодирования : mkvmerge v5.4.0 ('Piper') built on Mar 10 2012 13:34:39
Библиотека кодирования : libebml v1.2.3 + libmatroska v1.3.0

Видео
Идентификатор : 1
Формат : AVC
Формат/Информация : Advanced Video Codec
Профиль формата : High@L4.1
Параметр CABAC формата : Да
Параметр ReFrames формата : 9 кадров
Идентификатор кодека : V_MPEG4/ISO/AVC
Продолжительность : 1 ч. 30 м.
Битрейт : 2800 Кбит/сек
Ширина : 1280 пикселей
Высота : 720 пикселей
Соотношение сторон : 16:9
Режим частоты кадров : Постоянный
Частота кадров : 25,000 кадров/сек
Цветовое пространство : YUV
Субдискретизация насыщенности : 4:2:0
Битовая глубина : 8 бит
Тип развёртки : Прогрессивная
Бит/(Пиксели*Кадры) : 0.122
Размер потока : 1,73 Гбайт (84%)
Библиотека кодирования : x264 core 125 r2208 d9d2288
Настройки программы : cabac=1 / ref=9 / deblock=1:-2:-2 / analyse=0x3:0x133 / me=umh / subme=10 / psy=1 / psy_rd=1.00:0.15 / mixed_ref=1 / me_range=32 / chroma_me=1 / trellis=2 / 8x8dct=1 / cqm=0 / deadzone=21,11 / fast_pskip=0 / chroma_qp_offset=-3 / threads=6 / lookahead_threads=1 / sliced_threads=0 / nr=0 / decimate=0 / interlaced=0 / bluray_compat=0 / constrained_intra=0 / bframes=8 / b_pyramid=2 / b_adapt=2 / b_bias=0 / direct=3 / weightb=1 / open_gop=0 / weightp=2 / keyint=250 / keyint_min=25 / scenecut=40 / intra_refresh=0 / rc=2pass / mbtree=0 / bitrate=2800 / ratetol=1.0 / qcomp=0.60 / qpmin=0 / qpmax=69 / qpstep=4 / cplxblur=20.0 / qblur=0.5 / ip_ratio=1.40 / pb_ratio=1.30 / aq=1:0.80
Язык : English
Default : Да
Forced : Нет

Аудио
Идентификатор : 2
Формат : AC-3
Формат/Информация : Audio Coding 3
Расширение режима : CM (complete main)
Параметр Endianness формата : Big
Идентификатор кодека : A_AC3
Продолжительность : 1 ч. 30 м.
Вид битрейта : Постоянный
Битрейт : 448 Кбит/сек
Каналы : 6 каналов
Расположение каналов : Front: L C R, Side: L R, LFE
Частота : 48,0 КГц
Битовая глубина : 16 бит
Метод сжатия : С потерями
Задержка видео : 4 мс.
Размер потока : 290 Мбайт (14%)
Язык : Russian
Default : Да
Forced : Нет


Релиз от:



   Похожие торренты   Торрент   Размер 
В этой теме нет новых непрочитанных сообщений. Новогодний брак (2012) WEBRip (1080p) от MediaClub

9 | 3

3.43 ГБ

В этой теме нет новых непрочитанных сообщений. Идеальный брак [01-08 из 08] (2012) HDTVRip 720p от MediaClub

7 | 6

12.45 ГБ

В этой теме нет новых непрочитанных сообщений. Новогодний брак (2012) DVDRip-AVC

26 | 7

1.34 ГБ

В этой теме нет новых непрочитанных сообщений. Новогодний брак (2012) DVD5

2 | 1

4.1 ГБ

В этой теме нет новых непрочитанных сообщений. Новогодний брак (2012) DVDRip

158 | 10

1.37 ГБ

В этой теме нет новых непрочитанных сообщений. Новогодний брак (2012) DVDRip от RG Mixtorrent

11 | 4

703.58 МБ

В этой теме нет новых непрочитанных сообщений. Новогодний брак (2012) HDTV 1080i

32 | 4

4.08 ГБ




Вы не можете начинать темы
Вы не можете отвечать на сообщения
Вы не можете редактировать свои сообщения
Вы не можете удалять свои сообщения
Вы не можете добавлять вложения

Перейти:  
Для Мосгорсуда, Роскомнадзора и рекламодателей: mosgorsud-torrent[собачка]yandex.ru
 Вход
ppkBB3cker v.2 © 2008-2014 @ PPK
[ Time : 0.034s | 15 Queries | GZIP : Off ]

cron