img image001 image001 image001 image001 image001 image001 image001 image001 image001 image001 image001 image001 image001 image001 image001

Planets Sun Sun Sun
Статистика раздачи
Автор: PriZraK | Размер: 1.69 ГБ | Добавлен: 15 фев 2014
Раздают: 234    Качают: 9
Скачать торрент
Скачать торрент
Описание торрента

СообщениеДобавлено: 15 фев 2014 






Год выпуска: 2012
Страна: Россия
Жанр: Детектив, Криминал
Продолжительность: 93 минуты
Перевод: Не требуется


В ролях: Дмитрий Быковский-Ромашов, Дмитрий Орлов, Роман Бокашевский, Андрей Мокеев, Олег Тилькин, Андрей Гульнев, Андрей Горбачев, Екатерина Суворова, Елизавета Прилепская, Сергей Великанов, Леонид Луценко, Илья Катунцев, Андрей Бордухаев
Режиссёр: Леонид Пляскин


Описание: Сюжет криминальной истории закручен вокруг расследования похищения сына бывшего главы угрозыска, нити от которого тянутся к другому серьезному преступлению – крупному грабежу. Разбираясь в деталях запутанной истории, оперативник, которого коллеги зовут просто Джексон, приходит к выводу, что многие хотят замять это дело по-тихому, а значит легальными методами правосудия не добиться. Отчаянно желая прижать бандитов, блюститель правопорядка перевоплощается в русского Рембо, хорошенько вооружается на черном рынке (все ходы и выходы которого ему известны по роду службы) и устраивает «веселую» жизнь всем, кто связан с похищением Дегтярева-младшего.





Качество: WEB-DL 720p
Формат: MPEG-4
Видео кодек: AVC
Аудио кодек: AAC
Видео: MPEG4 Video (H264) 1280x720 25fps 2492kbps
Аудио: AAC 48000Hz stereo 127kbps



Format : MPEG-4
Format profile : Base Media
Codec ID : isom
File size : 1.69 GiB
Duration : 1h 32mn
Overall bit rate : 2 624 Kbps
Encoded date : UTC 2013-04-03 00:14:02
Tagged date : UTC 2013-04-03 00:14:02

Video
ID : 1
Format : AVC
Format/Info : Advanced Video Codec
Format profile : Main@L3.1
Format settings, CABAC : Yes
Format settings, ReFrames : 4 frames
Codec ID : avc1
Codec ID/Info : Advanced Video Coding
Duration : 1h 31mn
Bit rate : 2 492 Kbps
Width : 1 280 pixels
Height : 720 pixels
Display aspect ratio : 16:9
Frame rate mode : Constant
Frame rate : 25.000 fps
Color space : YUV
Chroma subsampling : 4:2:0
Bit depth : 8 bits
Scan type : Progressive
Bits/(Pixel*Frame) : 0.108
Stream size : 1.60 GiB (95%)
Language : Russian
Encoded date : UTC 2013-04-03 00:14:02
Tagged date : UTC 2013-04-09 11:14:01

Audio
ID : 2
Format : AAC
Format/Info : Advanced Audio Codec
Format profile : LC
Codec ID : 40
Duration : 1h 32mn
Source duration : 1h 32mn
Bit rate mode : Constant
Bit rate : 128 Kbps
Channel count : 2 channels
Channel positions : Front: L R
Sampling rate : 48.0 KHz
Compression mode : Lossy
Stream size : 84.2 MiB (5%)
Source stream size : 84.2 MiB (5%)





   Похожие торренты   Торрент   Размер 
В этой теме нет новых непрочитанных сообщений. Боевик Джексон / Джексон по кличке "Мотор" / Action Jackson (1988) BDRip от HQCLUB

21 | 7

1.45 ГБ

В этой теме нет новых непрочитанных сообщений. Просто Джексон (2012) SATRip

206 | 32

1.35 ГБ

В этой теме нет новых непрочитанных сообщений. Просто Джексон (2012) WEB-DLRip от Deadmauvlad

436 | 51

1.45 ГБ

В этой теме нет новых непрочитанных сообщений. Просто Джексон (2012) SATRip от КинозалSAT

43 | 7

699.97 МБ

В этой теме нет новых непрочитанных сообщений. Боевик Джексон / Action Jackson (2014) WEB-DL 720p | L2

474 | 26

2.08 ГБ

В этой теме нет новых непрочитанных сообщений. Боевик Джексон / Action Jackson (1988) BDRip 720p

87 | 42

9.35 ГБ

В этой теме нет новых непрочитанных сообщений. Перси Джексон и Море чудовищ / Percy Jackson: Sea of Monsters (2013) BDRip 720p

533 | 10

5.76 ГБ




Вы не можете начинать темы
Вы не можете отвечать на сообщения
Вы не можете редактировать свои сообщения
Вы не можете удалять свои сообщения
Вы не можете добавлять вложения

Перейти:  
Для Мосгорсуда, Роскомнадзора и рекламодателей: mosgorsud-torrent[собачка]yandex.ru
 Вход
ppkBB3cker v.2 © 2008-2014 @ PPK
[ Time : 0.037s | 14 Queries | GZIP : Off ]

Торрент трекер RUTOR.IN, Не можете зайти на rutor.org? Какой новый адрес рутор? Какое зеркало рутор? Не работает rutor.org и зеркала? Тогда наш торрент специально для вас. Rutor.in неофициальное зеркало rutor. В случае если у Вас заблокирован rutor или вдруг Вы не можете на него зайти, то Вы без труда сможете скачать бесплатно и без рекламы последние новинки кино, игр, сериалов и прочего у нас, на Rutor.in. Не нужно использовать прокси, чтобы зайти на рутор, достаточно воспользоваться нашим ресурсом. Все новые фильмы, игры, сериалы, книги и музыка за 2013 и 2014 годы через торрент бесплатно. Скачивайте фильмы в хорошем качестве, игры для пк, xbox, playstation без регистрации. У нас вы найдете новые Зарубежные сериалы и Русские сериалы 2013, 2014, 2015 годов. Оставайтесь с нами, качайте любимые фильмы, игры, сериалы, книги и музыку.