img image001 image001 image001 image001 image001 image001 image001 image001 image001 image001 image001 image001 image001 image001 image001

Planets Sun Sun Sun
Статистика раздачи
Автор: PriZraK | Размер: 2.06 ГБ | Добавлен: 15 фев 2014
Раздают: 265    Качают: 19
Скачать торрент
Скачать торрент
Описание торрента

СообщениеДобавлено: 15 фев 2014 




Информация о фильме
Название: На игре
Год выхода: 2010
Жанр: Боевик, приключения, фантастика
Режиссёр: Павел Санаев
В ролях: Алексей Бардуков, Агния Дитковските, Сергей Чирков, Павел Прилучный, Евгений Харланов, Виктор Вержбицкий, Игорь Скляр, Марина Петренко, Тихон Жизневский, Нодар Сирадзе

О фильме:
После оглушительной победы на турнире по киберспорту команде друзей-геймеров вручают диски с новейшей, только что разработанной игрой. Запустив игру, каждый из них подвергается воздействию, переводящему их игровые способности в реальные. Теперь и в жизни они лучшие бойцы, стрелки и гонщики. Данное событие не остается незамеченным. Властные структуры путем шантажа, обмана и подкупа предлагают геймерам "работу", которая использует их уникальные способности. Но как только обман раскрывается становиться понятно, что они не герои, спасающие страну, а банальные наемные убийцы. Встает вопрос: как быть дальше? Команда разделилась. Каждый идет к своей цели...



Страна: Россия
Студия: Каропрокат, КарОван Продакшн, Иваn, Русское счастье энтертеймент
Продолжительность: 02:07:22
Перевод: Не требуется
Язык: Русский

Файл
Кодек: XviD
Качество: DVDRip (Исходник: DVD-9)
Видео: XviD, 704x304, 1855 Кбит/с, 25 кадр/с
Аудио: Русский, Dolby AC3, 48000 Гц, 448 Кбит/с, 6 каналов (5.1)
Субтитры: Нет



Автор рипа - ivandubskoj

Фильм «На игре» задумывался как масштабный приключенческий боевик, способный доказать, что отечественный кинематограф способен состязаться на этом поле с основоположниками жанра - американцами. По ряду причин задуманная картина была выпущена на экраны дилогией из двух фильмов, что помешало многим зрителям получить цельное впечатление. Спустя некоторое время была смонтирована режиссерская версия, представляющая собой единую динамичную картину - 2 часа 7 минут взрывного адреналинового действия. В таком виде фильм был куплен для показа множеством стран и принял участие в ряде фестивалей на Родине жанра — в Лос Анджелесе и Нью Йорке. Более десяти призов, включая два главных приза за лучший фильм, свидетельствуют, что состязание с Голливудом засчитано в нашу пользу. «На игре» - одна из вершин российского кинематографа в жанре экшн, высоко оцененная профессионалами Фабрики Грез.
General
Complete name : Na.igre.Director's.Cut.2010.DVDRip.avi
Format : AVI
Format/Info : Audio Video Interleave
Format profile : OpenDML
File size : 2.06 GiB
Duration : 2h 7mn
Overall bit rate : 2 313 Kbps
Movie name : На игре [Режиссёрская версия] (2010) DVDRip
Recorded date : 06.02.2014
Writing application : VirtualDubMod 1.5.10.3 (build 2550/release)
Writing library : VirtualDubMod build 2550/release
Copyright : rip by ivandubskoj

Video
ID : 0
Format : MPEG-4 Visual
Format profile : Advanced Simple@L5
Format settings, BVOP : 2
Format settings, QPel : No
Format settings, GMC : No warppoints
Format settings, Matrix : Custom
Codec ID : XVID
Codec ID/Hint : XviD
Duration : 2h 7mn
Bit rate : 1 855 Kbps
Width : 704 pixels
Height : 304 pixels
Display aspect ratio : 2.35:1
Frame rate : 25.000 fps
Color space : YUV
Chroma subsampling : 4:2:0
Bit depth : 8 bits
Scan type : Progressive
Compression mode : Lossy
Bits/(Pixel*Frame) : 0.346
Stream size : 1.65 GiB (80%)
Writing library : XviD 73

Audio
ID : 1
Format : AC-3
Format/Info : Audio Coding 3
Mode extension : CM (complete main)
Codec ID : 2000
Duration : 2h 7mn
Bit rate mode : Constant
Bit rate : 448 Kbps
Channel(s) : 6 channels
Channel positions : Front: L C R, Side: L R, LFE
Sampling rate : 48.0 KHz
Bit depth : 16 bits
Compression mode : Lossy
Stream size : 408 MiB (19%)
Alignment : Split accross interleaves
Interleave, duration : 64 ms (1.60 video frames)
Interleave, preload duration : 500 ms
Title : Russian



   Похожие торренты   Торрент   Размер 
В этой теме нет новых непрочитанных сообщений. Реквием по мечте / Requiem for a Dream (2000) BDRip от ivandubskoj D, P2, A | Режиссёрская версия

249 | 32

2.18 ГБ

В этой теме нет новых непрочитанных сообщений. На игре / На игре 2. Новый уровень (2009/2010) BDRip 720p от Iriy

12 | 5

8.73 ГБ

В этой теме нет новых непрочитанных сообщений. На игре / На игре 2. Новый уровень (2009/2010) BDRip-AVC от New-Team

393 | 32

4.36 ГБ

В этой теме нет новых непрочитанных сообщений. На игре / На игре 2. Новый уровень (2009/2010) BDRip от HQCLUB

94 | 9

2.91 ГБ

В этой теме нет новых непрочитанных сообщений. На игре 2. Новый уровень (2010) DVDRip

29 | 8

699.72 МБ

В этой теме нет новых непрочитанных сообщений. На игре: Дилогия (2009-2010) DVDRip

11 | 6

2.92 ГБ

В этой теме нет новых непрочитанных сообщений. Чудаки 3 / Jackass 3 (2010) DVD5 от DRG | Режиссёрская Версия

0 | 1

4.3 ГБ




Вы не можете начинать темы
Вы не можете отвечать на сообщения
Вы не можете редактировать свои сообщения
Вы не можете удалять свои сообщения
Вы не можете добавлять вложения

Перейти:  
Для Мосгорсуда, Роскомнадзора и рекламодателей: mosgorsud-torrent[собачка]yandex.ru
 Вход
ppkBB3cker v.2 © 2008-2014 @ PPK
[ Time : 0.919s | 14 Queries | GZIP : Off ]

Торрент трекер RUTOR.IN, Не можете зайти на rutor.org? Какой новый адрес рутор? Какое зеркало рутор? Не работает rutor.org и зеркала? Тогда наш торрент специально для вас. Rutor.in неофициальное зеркало rutor. В случае если у Вас заблокирован rutor или вдруг Вы не можете на него зайти, то Вы без труда сможете скачать бесплатно и без рекламы последние новинки кино, игр, сериалов и прочего у нас, на Rutor.in. Не нужно использовать прокси, чтобы зайти на рутор, достаточно воспользоваться нашим ресурсом. Все новые фильмы, игры, сериалы, книги и музыка за 2013 и 2014 годы через торрент бесплатно. Скачивайте фильмы в хорошем качестве, игры для пк, xbox, playstation без регистрации. У нас вы найдете новые Зарубежные сериалы и Русские сериалы 2013, 2014, 2015 годов. Оставайтесь с нами, качайте любимые фильмы, игры, сериалы, книги и музыку.