img image001 image001 image001 image001 image001 image001 image001 image001 image001 image001 image001 image001 image001 image001 image001

Planets Sun Sun Sun
Статистика раздачи
Автор: PriZraK | Размер: 3.68 ГБ | Добавлен: 15 фев 2014
Раздают: 907    Качают: 89
Скачать торрент
Скачать торрент
Описание торрента

СообщениеДобавлено: 15 фев 2014 




Информация о фильме
Название: Любовь в большом городе 3
Год выхода: 2013
Жанр: Комедия, приключения, фантастика
Режиссёр: Марюс Вайсберг, Дэвид Додсон
В ролях: Алексей Чадов, Владимир Зеленский, Светлана Ходченкова, Вера Брежнева, Вилле Хаапасало, Настя Задорожная, Филипп Киркоров, Шэрон Стоун, Игорь Жижикин, Екатерина Климова

О фильме: В жизни каждого отца, рано или поздно наступает момент, когда жена улетает на заслуженный отдых, а он остаётся один на один с собственным ребёнком. Казалось бы - ничего сложного! Также подумали Игорь, Артём и Сауна, даже не подозревая, какой «водопад» приключений накроет их с головой. Измученные «прелестями» отцовства, парни встречают своего старого приятеля Святого Валентина. Снимая стресс за бутылочкой виски, ребята в шутку мечтают о том, чтобы их дети поскорее стали взрослыми. А на утро, шокированные папаши понимают - их мечта сбылась и теперь они на собственной шкуре поймут, что значит поговорка: "Большие дети - большие проблемы…"



Выпущено: Россия, Украина, First Breath Films, Kvartal 95 Studio, Leopolis
Продолжительность: 01:18:45
Перевод: Не требуется
Язык: Русский

Файл
Кодек: MPEG-2
Качество: DVD-5
Видео: MPEG2, PAL, 720x576 (16:9), MPEG Video, 5993 Кбит/с, VBR, 25 кадр/с
Аудио: Dolby AC3, 384 Кбит/с, 48000 Гц, 6 каналов (5.1)
Субтитры: Нет
Бонусы: Нет
Меню: Есть, анимированное, озвученное



Автор реавторинга - ivandubskoj

ЗАМЕНИЛ НЕ ОЧЕНЬ КАЧЕСТВЕННЫЙ ЗВУК, С DVD, С БИТРЕЙТОМ, ВСЕГО ЛИШЬ 256 КБИТ/С, НА БОЛЕЕ КАЧЕСТВЕННЫЙ, С БИТРЕЙТОМ 384 КБИТ/С, ВЗЯТЫЙ С WEB-DL, ГДЕ И КАЧЕСТВО ПОВЫШЕ И СПЕКТР НОРМАЛЬНЫЙ!
Подогнал и синхронизировал.

Вот спектр, сами смотрите:

http://screenshotcomparison.com/comparison/60243
Для реавторинга DVD: PgcDemux, IFOedit, VOBBlanker
Для аудио-дорожки: BeLight, BeSweet, eac3to, delaycut
General
Complete name : VTS_02_1.VOB
Format : MPEG-PS
File size : 1 024 MiB
Duration : 22mn 0s
Overall bit rate : 6 507 Kbps

Video
ID : 224 (0xE0)
Format : MPEG Video
Format version : Version 2
Format profile : Main@Main
Format settings, BVOP : Yes
Format settings, Matrix : Custom
Format settings, GOP : M=3, N=15
Duration : 22mn 0s
Bit rate mode : Variable
Bit rate : 5 993 Kbps
Nominal bit rate : 9 000 Kbps
Width : 720 pixels
Height : 576 pixels
Display aspect ratio : 16:9
Frame rate : 25.000 fps
Standard : PAL
Color space : YUV
Chroma subsampling : 4:2:0
Bit depth : 8 bits
Scan type : Interlaced
Scan order : Top Field First
Compression mode : Lossy
Bits/(Pixel*Frame) : 0.578
Stream size : 943 MiB (92%)

Audio
ID : 189 (0xBD)-128 (0x80)
Format : AC-3
Format/Info : Audio Coding 3
Mode extension : CM (complete main)
Muxing mode : DVD-Video
Duration : 21mn 59s
Bit rate mode : Constant
Bit rate : 384 Kbps
Channel(s) : 6 channels
Channel positions : Front: L C R, Side: L R, LFE
Sampling rate : 48.0 KHz
Bit depth : 16 bits
Compression mode : Lossy
Stream size : 60.4 MiB (6%)

Menu






   Похожие торренты   Торрент   Размер 
В этой теме нет новых непрочитанных сообщений. Любовь в большом городе 3 (2013) WEB-DLRip от ivandubskoj

164 | 10

1.43 ГБ

В этой теме нет новых непрочитанных сообщений. Любовь в большом городе 3 (2014) DVD5 | Лицензия

333 | 18

3.6 ГБ

В этой теме нет новых непрочитанных сообщений. Любовь в большом городе 3 (2013) HDRip от Scarabey

338 | 17

744.67 МБ

В этой теме нет новых непрочитанных сообщений. Любовь в большом городе 3 (2013) DVDRip от -=HD-NET=- | КПК | Лицензия

289 | 9

329.72 МБ

В этой теме нет новых непрочитанных сообщений. Любовь в большом городе 3 (2013) WEB-DLRip от Scarabey

839 | 67

1.45 ГБ

В этой теме нет новых непрочитанных сообщений. Любовь в большом городе: Трилогия (2009-2013) BDRip, WEB-DLRip-AVC 720р

135 | 165

11.22 ГБ

В этой теме нет новых непрочитанных сообщений. Любовь в большом городе 3 [01-08 из 08] (2014) TVRip

170 | 164

4.35 ГБ




Вы не можете начинать темы
Вы не можете отвечать на сообщения
Вы не можете редактировать свои сообщения
Вы не можете удалять свои сообщения
Вы не можете добавлять вложения

Перейти:  
 Вход
ppkBB3cker v.2 © 2008-2014 @ PPK
[ Time : 0.252s | 15 Queries | GZIP : Off ]

cron