img image001 image001 image001 image001 image001 image001 image001 image001 image001 image001 image001 image001 image001 image001 image001

Planets Sun Sun Sun
Статистика раздачи
Автор: PriZraK | Размер: 701.12 МБ | Добавлен: 15 фев 2014
Раздают: 114    Качают: 5
Скачать торрент
Скачать торрент
Описание торрента

СообщениеДобавлено: 15 фев 2014 




Информация о фильме
Название: Одноклассники.ru: НаCLICKай удачу
Год выхода: 2013
Жанр: Комедия, фантастика, мелодрама
Режиссёр: Павел Худяков
В ролях: Пётр Фёдоров, Фёдор Бондарчук, Корнелия Поляк, Сергей Друзьяк, Тимати, Снуп Догг, Сергей Никоненко, Александр Ревва, Ольга Тумайкина, Семён Стругачев, Жанна Фриске, Ксения Собчак

О фильме: Круто, когда есть кнопка, на которую жмёшь, и всё становится по-твоему! Именно такая попала в руки молодому креативщику и тотальному неудачнику Лёше. Теперь у него высокооплачиваемая работа, дорогая машина, стильный гардероб и, конечно, идеальная девушка. Достаточно одного клика! Просто надо знать, куда жать!... А начиналось всё так: в жизни талантливого копирайтера Лёши наступила чёрная полоса. Всё, за что он берётся заканчивается полным провалом. Даже самые благие намерения, например спасение собаки из рук хулиганов оборачивается катастрофой - Лёшу жестоко избивают. Только лучший друг Димон и спасённый Лешей пёс Снуппи остаются рядом с ним и готовы идти до конца. Всё равно дальше падать некуда. Всем троим срочно нужно чудо. Спасение приходит неожиданно: Лёша хочет вернуть Снуппи хозяину и попадает в очень необычное место, в котором всем заправляет парень по имени Лил Вейн. За спасение любимого пса он вручает Лёше ноутбук. В руках нашего героя оказывается настоящее чудо: стоит написать статус в «Одноклассниках» и самые заветные мечты становятся реальностью. Девушки, дорогие машины, роскошный дом - для волшебного ноутбука нет ничего невозможного. Главная цель Лёши - устроиться на работу в престижное рекламное агентство и заслужить любовь красавицы Маши. Первое желание исполняется мгновенно, а вот со вторым есть проблемы. Маша встречается с редкостным негодяем Федором, который ненавидит Лёшу с самой первой встречи. Более того, Фёдор – Лёшин шеф и правая рука главы рекламного агентства Виктора Чернышёва. Лёша всё больше и больше увлекается чудесами ноутбука: теперь его лучший друг - Тимати, он в одно мгновение может изменить политику целого государства и создать популяцию амурских тигров в Сибири...



Выпущено: Россия, Худяков production
Продолжительность: 01:35:49
Перевод: Не требуется

Файл
Кодек: XviD
Качество: DVDRip (Исходник: DVD-9)
Видео: XviD, 640x272 (2.35:1), 25 кадр/с, 888 Кбит/с,
Звук: Русский, MP3, 48000 Гц, 128 Кбит/с, 2 канала (Стерео)



Автор рипа - ivandubskoj

General
Complete name : Odnoklassniki.ru.Naklikay.Uda4u.2013.DVDRip.700MB.avi
Format : AVI
Format/Info : Audio Video Interleave
File size : 701 MiB
Duration : 1h 35mn
Overall bit rate : 1 024 Kbps
Movie name : Одноклассники.ru: НаCLICKай удачу (2013) DVDRip
Recorded date : 08.02.2014
Writing application : VirtualDubMod 1.5.10.3 (build 2550/release)
Writing library : VirtualDubMod build 2550/release
Copyright : rip by ivandubskoj

Video
ID : 0
Format : MPEG-4 Visual
Format profile : Advanced Simple@L5
Format settings, BVOP : 1
Format settings, QPel : No
Format settings, GMC : No warppoints
Format settings, Matrix : Default (H.263)
Codec ID : XVID
Codec ID/Hint : XviD
Duration : 1h 35mn
Bit rate : 888 Kbps
Width : 640 pixels
Height : 272 pixels
Display aspect ratio : 2.35:1
Frame rate : 25.000 fps
Color space : YUV
Chroma subsampling : 4:2:0
Bit depth : 8 bits
Scan type : Progressive
Compression mode : Lossy
Bits/(Pixel*Frame) : 0.204
Stream size : 608 MiB (87%)
Writing library : XviD 73

Audio
ID : 1
Format : MPEG Audio
Format version : Version 1
Format profile : Layer 3
Mode : Joint stereo
Codec ID : 55
Codec ID/Hint : MP3
Duration : 1h 35mn
Bit rate mode : Constant
Bit rate : 128 Kbps
Channel(s) : 2 channels
Sampling rate : 48.0 KHz
Compression mode : Lossy
Stream size : 87.7 MiB (13%)
Alignment : Aligned on interleaves
Interleave, duration : 40 ms (1.00 video frame)
Interleave, preload duration : 504 ms
Title : Russian





   Похожие торренты   Торрент   Размер 
В этой теме нет новых непрочитанных сообщений. Одноклассники.ru: НаCLICKай удачу (2013) DVDRip | Лицензия

3879 | 223

1.37 ГБ

В этой теме нет новых непрочитанных сообщений. Одноклассники.ru: НаCLICKай удачу (2013) WEBRip

37 | 3

697.41 МБ

В этой теме нет новых непрочитанных сообщений. Одноклассники.ru: НаCLICKай удачу (2013) HDRip | Лицензия

1673 | 87

1.46 ГБ

В этой теме нет новых непрочитанных сообщений. Одноклассники.ru: НаCLICKай удачу (2013) Blu-Ray 1080p | Лицензия

46 | 24

22.64 ГБ

В этой теме нет новых непрочитанных сообщений. Одноклассники.ru: НаCLICKай удачу (2013) BDRip от HQCLUB

514 | 76

1.8 ГБ

В этой теме нет новых непрочитанных сообщений. Одноклассники.ru: НаCLICKай удачу (2013) BDRip-AVC от MediaClub | Лицензия

455 | 22

2.18 ГБ

В этой теме нет новых непрочитанных сообщений. Одноклассники.ru: НаCLICKай удачу (2013) BDRip 720p | Лицензия

818 | 73

3.52 ГБ




Вы не можете начинать темы
Вы не можете отвечать на сообщения
Вы не можете редактировать свои сообщения
Вы не можете удалять свои сообщения
Вы не можете добавлять вложения

Перейти:  
Для Мосгорсуда, Роскомнадзора и рекламодателей: mosgorsud-torrent[собачка]yandex.ru
 Вход
ppkBB3cker v.2 © 2008-2014 @ PPK
[ Time : 0.047s | 15 Queries | GZIP : Off ]

Торрент трекер RUTOR.IN, Не можете зайти на rutor.org? Какой новый адрес рутор? Какое зеркало рутор? Не работает rutor.org и зеркала? Тогда наш торрент специально для вас. Rutor.in неофициальное зеркало rutor. В случае если у Вас заблокирован rutor или вдруг Вы не можете на него зайти, то Вы без труда сможете скачать бесплатно и без рекламы последние новинки кино, игр, сериалов и прочего у нас, на Rutor.in. Не нужно использовать прокси, чтобы зайти на рутор, достаточно воспользоваться нашим ресурсом. Все новые фильмы, игры, сериалы, книги и музыка за 2013 и 2014 годы через торрент бесплатно. Скачивайте фильмы в хорошем качестве, игры для пк, xbox, playstation без регистрации. У нас вы найдете новые Зарубежные сериалы и Русские сериалы 2013, 2014, 2015 годов. Оставайтесь с нами, качайте любимые фильмы, игры, сериалы, книги и музыку.