img image001 image001 image001 image001 image001 image001 image001 image001 image001 image001 image001 image001 image001 image001 image001

Planets Sun Sun Sun
Статистика раздачи
Автор: PriZraK | Размер: 744.17 МБ | Добавлен: 15 фев 2014
Раздают: 42    Качают: 6
Скачать торрент
Скачать торрент
Описание торрента

СообщениеДобавлено: 15 фев 2014 


#77
Страна: СССР
Производство: Мосфильм
Жанр: боевик, криминал
Год выпуска: 1984
Продолжительность: 01:21:37

Перевод: не требуется
Оригинальная аудиодорожка: русский
Cубтитры: нет

Режиссер: Александр Гордон

В ролях:
Вадим Михеенко, Юрий Назаров, Борис Химичёв, Шавкат Газиев, Наталья Гущина, Александр Коршунов, Георгий Мартиросьян, Станислав Михин, Николай Прокопович, Екатерина Тарковская, Витаутас Томкус, Виктор Фокин...

Описание:
Шофёры-дальнобойщики из Совтрансавто Виктор и Петрович (Вадим Михеенко и Юрий Назаров) перевозят ценный груз — импортную кожу. Про это знают двое рецидивистов. По заказу местной мафии они похищают фуру с дорогим грузом, а водителей связывают и берут с собой. Их цель — доставить украденное за несколько сот километров. По дороге они натыкаются на пост ГАИ, где убивают одного сотрудника и тяжело ранят другого. За похищенной машиной устремляется капитан ГАИ Маджиев…






Исходник: HDTV 1080i
Тип релиза: HDTVRip
Контейнер: AVI

Видео: 720x400 (16:9), 25 fps, XviD ~ 1137 kbps avg, 0.158 bit/pixel
Аудио: 48 kHz, MP3 2.0, 128 kbps

Раздача от:
Общее
Полное имя : Dvoynoy.obgon.1984.HDTVRip-745_[New-team]_by_AVP_Studio.avi
Формат : AVI
Формат/Информация : Audio Video Interleave
Размер файла : 744 Мбайт
Продолжительность : 1 ч. 21 м.
Общий поток : 1275 Кбит/сек
Программа кодирования : VirtualDubModRus 1.5.10.2 (build 2542/release)
Библиотека кодирования : VirtualDubMod build 2542/release

Видео
Идентификатор : 0
Формат : MPEG-4 Visual
Профиль формата : Advanced Simple@L5
Параметр BVOP формата : 1
Параметр QPel формата : Нет
Параметр GMC формата : Без точки перехода
Параметр матрицы формата : Выборочная
Идентификатор кодека : XVID
Идентификатор кодека/Подсказка : XviD
Продолжительность : 1 ч. 21 м.
Битрейт : 1137 Кбит/сек
Ширина : 720 пикселей
Высота : 400 пикселей
Соотношение сторон : 16:9
Частота кадров : 25,000 кадров/сек
Цветовое пространство : YUV
Субдискретизация насыщенности : 4:2:0
Битовая глубина : 8 бит
Тип развёртки : Прогрессивная
Метод сжатия : С потерями
Бит/(Пиксели*Кадры) : 0.158
Размер потока : 664 Мбайт (89%)
Библиотека кодирования : XviD 73

Аудио
Идентификатор : 1
Формат : MPEG Audio
Версия формата : Version 1
Профиль формата : Layer 3
Идентификатор кодека : 55
Идентификатор кодека/Подсказка : MP3
Продолжительность : 1 ч. 21 м.
Вид битрейта : Постоянный
Битрейт : 128 Кбит/сек
Каналы : 2 канала
Частота : 48,0 КГц
Метод сжатия : С потерями
Размер потока : 74,7 Мбайт (10%)
Выравнивание : Соединение по промежуткам
Продолжительность промежутка : 40 мс. (1,00 видеокадр)
Время предзагрузки промежутка : 504 мс.
Библиотека кодирования : LAME3.99r
Настройки программы : -m s -V 4 -q 2 -lowpass 17 -b 128



Премьера: ноябрь 1984 года.
В записи музыки к фильму принимала участие группа «Машина Времени», указанная в титрах как «Инструментальный ансамбль под управлением А. Макаревича».
В одном из эпизодов снят МАЗ, в следующем кадре — Mercedes-Benz NG, но его продолжают называть МАЗом по сценарию. Очевидно, МАЗ вышел из строя во время съёмок.



   Похожие торренты   Торрент   Размер 
В этой теме нет новых непрочитанных сообщений. Двойной обгон (1984) HDTVRip-AVC от New-Team

50 | 6

1.46 ГБ

В этой теме нет новых непрочитанных сообщений. Двойной обгон (1984) HDTVRip от New-Team

80 | 18

1.46 ГБ

В этой теме нет новых непрочитанных сообщений. Двойной обгон (1984) HDTV 1080i

2 | 7

8.9 ГБ

В этой теме нет новых непрочитанных сообщений. Птаха / Birdy (1984) HDTVRip 1080р от NOLIMITS-TEAM

14 | 3

4.3 ГБ

В этой теме нет новых непрочитанных сообщений. Баунти / The Bounty (1984) HDTVRip 720p от Element team

1 | 3

2.21 ГБ

В этой теме нет новых непрочитанных сообщений. Петля / Tightrope (1984) HDTVRip 720p от Element team

1 | 2

2.19 ГБ

В этой теме нет новых непрочитанных сообщений. Совершенно секретно! / Top Secret! (1984) HDTVRip 720p от Element team

0 | 2

2.19 ГБ




Вы не можете начинать темы
Вы не можете отвечать на сообщения
Вы не можете редактировать свои сообщения
Вы не можете удалять свои сообщения
Вы не можете добавлять вложения

Перейти:  
Для Мосгорсуда, Роскомнадзора и рекламодателей: mosgorsud-torrent[собачка]yandex.ru
 Вход
ppkBB3cker v.2 © 2008-2014 @ PPK
[ Time : 0.028s | 18 Queries | GZIP : Off ]

Торрент трекер RUTOR.IN, Не можете зайти на rutor.org? Какой новый адрес рутор? Какое зеркало рутор? Не работает rutor.org и зеркала? Тогда наш торрент специально для вас. Rutor.in неофициальное зеркало rutor. В случае если у Вас заблокирован rutor или вдруг Вы не можете на него зайти, то Вы без труда сможете скачать бесплатно и без рекламы последние новинки кино, игр, сериалов и прочего у нас, на Rutor.in. Не нужно использовать прокси, чтобы зайти на рутор, достаточно воспользоваться нашим ресурсом. Все новые фильмы, игры, сериалы, книги и музыка за 2013 и 2014 годы через торрент бесплатно. Скачивайте фильмы в хорошем качестве, игры для пк, xbox, playstation без регистрации. У нас вы найдете новые Зарубежные сериалы и Русские сериалы 2013, 2014, 2015 годов. Оставайтесь с нами, качайте любимые фильмы, игры, сериалы, книги и музыку.
cron