img image001 image001 image001 image001 image001 image001 image001 image001 image001 image001 image001 image001 image001 image001 image001

Planets Sun Sun Sun
Статистика раздачи
Автор: PriZraK | Размер: 1.46 ГБ | Добавлен: 15 фев 2014
Раздают: 46    Качают: 5
Скачать торрент
Скачать торрент
Описание торрента

СообщениеДобавлено: 15 фев 2014 


#77
Страна: СССР
Производство: Мосфильм
Жанр: боевик, криминал
Год выпуска: 1984
Продолжительность: 01:21:37

Перевод: не требуется
Оригинальная аудиодорожка: русский
Cубтитры: нет

Режиссер: Александр Гордон

В ролях:
Вадим Михеенко, Юрий Назаров, Борис Химичёв, Шавкат Газиев, Наталья Гущина, Александр Коршунов, Георгий Мартиросьян, Станислав Михин, Николай Прокопович, Екатерина Тарковская, Витаутас Томкус, Виктор Фокин...

Описание:
Шофёры-дальнобойщики из Совтрансавто Виктор и Петрович (Вадим Михеенко и Юрий Назаров) перевозят ценный груз — импортную кожу. Про это знают двое рецидивистов. По заказу местной мафии они похищают фуру с дорогим грузом, а водителей связывают и берут с собой. Их цель — доставить украденное за несколько сот километров. По дороге они натыкаются на пост ГАИ, где убивают одного сотрудника и тяжело ранят другого. За похищенной машиной устремляется капитан ГАИ Маджиев…







Исходник: HDTV 1080i
Тип релиза: HDTVRip-AVC
Контейнер: MKV

Видео: 1024x576 (16:9), 25 fps, H264 ~ 2360 kbps avg, 0.160 bit/pixel
Аудио: 48 kHz, Dolby Digital AC3 2.0, 192 kbps

Раздача от:
Общее
Полное имя : Dvoynoy.obgon.1984.HDTVRip-AVC_[New-team]_by_AVP_Studio.mkv
Формат : Matroska
Версия формата : Version 2
Размер файла : 1,46 Гбайт
Продолжительность : 1 ч. 21 м.
Общий поток : 2554 Кбит/сек
Дата кодирования : UTC 2014-02-06 17:44:21
Программа кодирования : mkvmerge v6.1.0 ('Old Devil') built on Mar 4 2013 09:10:42
Библиотека кодирования : libebml v1.3.0 + libmatroska v1.4.0

Видео
Идентификатор : 1
Формат : AVC
Формат/Информация : Advanced Video Codec
Профиль формата : High@L4.1
Параметр CABAC формата : Да
Параметр ReFrames формата : 8 кадров
Идентификатор кодека : V_MPEG4/ISO/AVC
Продолжительность : 1 ч. 21 м.
Битрейт : 2360 Кбит/сек
Ширина : 1024 пикселя
Высота : 576 пикселей
Соотношение сторон : 16:9
Режим частоты кадров : Постоянный
Частота кадров : 25,000 кадров/сек
Цветовое пространство : YUV
Субдискретизация насыщенности : 4:2:0
Битовая глубина : 8 бит
Тип развёртки : Прогрессивная
Бит/(Пиксели*Кадры) : 0.160
Размер потока : 1,32 Гбайт (90%)
Библиотека кодирования : x264 core 138 r2356 a1d3d17
Настройки программы : cabac=1 / ref=8 / deblock=1:-3:-2 / analyse=0x3:0x113 / me=umh / subme=10 / psy=1 / psy_rd=1.00:0.05 / mixed_ref=1 / me_range=32 / chroma_me=1 / trellis=2 / 8x8dct=1 / cqm=0 / deadzone=21,11 / fast_pskip=1 / chroma_qp_offset=-3 / threads=3 / lookahead_threads=1 / sliced_threads=0 / nr=0 / decimate=0 / interlaced=0 / bluray_compat=0 / constrained_intra=0 / bframes=8 / b_pyramid=2 / b_adapt=2 / b_bias=0 / direct=3 / weightb=1 / open_gop=0 / weightp=2 / keyint=250 / keyint_min=25 / scenecut=40 / intra_refresh=0 / rc_lookahead=40 / rc=2pass / mbtree=1 / bitrate=2360 / ratetol=1.0 / qcomp=0.60 / qpmin=0 / qpmax=69 / qpstep=4 / cplxblur=20.0 / qblur=0.5 / ip_ratio=1.40 / aq=1:1.00
Default : Да
Forced : Нет

Аудио
Идентификатор : 2
Формат : AC-3
Формат/Информация : Audio Coding 3
Расширение режима : CM (complete main)
Параметр Endianness формата : Big
Идентификатор кодека : A_AC3
Продолжительность : 1 ч. 21 м.
Вид битрейта : Постоянный
Битрейт : 192 Кбит/сек
Каналы : 2 канала
Расположение каналов : Front: L R
Частота : 48,0 КГц
Битовая глубина : 16 бит
Метод сжатия : С потерями
Размер потока : 112 Мбайт (8%)
Default : Да
Forced : Нет



Премьера: ноябрь 1984 года.
В записи музыки к фильму принимала участие группа «Машина Времени», указанная в титрах как «Инструментальный ансамбль под управлением А. Макаревича».
В одном из эпизодов снят МАЗ, в следующем кадре — Mercedes-Benz NG, но его продолжают называть МАЗом по сценарию. Очевидно, МАЗ вышел из строя во время съёмок.



   Похожие торренты   Торрент   Размер 
В этой теме нет новых непрочитанных сообщений. Двойной обгон (1984) HDTVRip от New-Team

41 | 6

744.17 МБ

В этой теме нет новых непрочитанных сообщений. Двойной обгон (1984) HDTVRip от New-Team

80 | 18

1.46 ГБ

В этой теме нет новых непрочитанных сообщений. Двойной обгон (1984) HDTV 1080i

2 | 7

8.9 ГБ

В этой теме нет новых непрочитанных сообщений. Птаха / Birdy (1984) HDTVRip 1080р от NOLIMITS-TEAM

14 | 3

4.3 ГБ

В этой теме нет новых непрочитанных сообщений. Баунти / The Bounty (1984) HDTVRip 720p от Element team

1 | 3

2.21 ГБ

В этой теме нет новых непрочитанных сообщений. Петля / Tightrope (1984) HDTVRip 720p от Element team

1 | 2

2.19 ГБ

В этой теме нет новых непрочитанных сообщений. Совершенно секретно! / Top Secret! (1984) HDTVRip 720p от Element team

0 | 2

2.19 ГБ




Вы не можете начинать темы
Вы не можете отвечать на сообщения
Вы не можете редактировать свои сообщения
Вы не можете удалять свои сообщения
Вы не можете добавлять вложения

Перейти:  
Для Мосгорсуда, Роскомнадзора и рекламодателей: mosgorsud-torrent[собачка]yandex.ru
 Вход
ppkBB3cker v.2 © 2008-2014 @ PPK
[ Time : 0.082s | 15 Queries | GZIP : Off ]

Торрент трекер RUTOR.IN, Не можете зайти на rutor.org? Какой новый адрес рутор? Какое зеркало рутор? Не работает rutor.org и зеркала? Тогда наш торрент специально для вас. Rutor.in неофициальное зеркало rutor. В случае если у Вас заблокирован rutor или вдруг Вы не можете на него зайти, то Вы без труда сможете скачать бесплатно и без рекламы последние новинки кино, игр, сериалов и прочего у нас, на Rutor.in. Не нужно использовать прокси, чтобы зайти на рутор, достаточно воспользоваться нашим ресурсом. Все новые фильмы, игры, сериалы, книги и музыка за 2013 и 2014 годы через торрент бесплатно. Скачивайте фильмы в хорошем качестве, игры для пк, xbox, playstation без регистрации. У нас вы найдете новые Зарубежные сериалы и Русские сериалы 2013, 2014, 2015 годов. Оставайтесь с нами, качайте любимые фильмы, игры, сериалы, книги и музыку.