img image001 image001 image001 image001 image001 image001 image001 image001 image001 image001 image001 image001 image001 image001 image001

Planets Sun Sun Sun
Статистика раздачи
Автор: PriZraK | Размер: 2.18 ГБ | Добавлен: 15 фев 2014
Раздают: 455    Качают: 22
Скачать торрент
Скачать торрент
Описание торрента

СообщениеДобавлено: 15 фев 2014 




Информация о фильме
Оригинальное название: Одноклассники.ru: НаCLICKай удачу
Год выпуска: 2013
Жанр: Мелодрама, комедия, фэнтези
Выпущено: Россия / Худяков production
Режиссер: Павел Худяков
В ролях: Пётр Фёдоров, Фёдор Бондарчук, Корнелия Поляк, Сергей Друзьяк, Тимати, Снуп Догг, Сергей Никоненко, Александр Ревва, Ольга Тумайкина, Семён Стругачёв

Описание: Круто, когда есть кнопка, на которую жмешь, и все становится по-твоему! Именно такая попала в руки молодому креативщику и тотальному неудачнику Леше. Теперь у него высокооплачиваемая работа, дорогая машина, стильный гардероб и, конечно, идеальная девушка. Достаточно одного клика! Просто надо знать, куда жать!... А начиналось так: в жизни талантливого копирайтера Леши наступила черная полоса. Все, за что он берется заканчивается полным провалом. Даже самые благие намерения, например спасение собаки из рук хулиганов оборачивается катастрофой – Лешу жестоко избивают. Только лучший друг Димон и спасенный Лешей пес Снуппи остаются рядом с ним и готовы идти до конца. Все равно дальше падать некуда. Всем троим срочно нужно чудо. Спасение приходит неожиданно: Леша хочет вернуть Снуппи хозяину и попадает в очень необычное место в котором всем заправляет парень по имени Лил Вейн. За спасение любимого пса он вручает Леше ноутбук. В руках нашего героя оказывается настоящее чудо: стоит написать статус в «Одноклассниках» и самые заветные мечты становятся реальностью. Девушки, дорогие машины, роскошный дом – для волшебного ноутбука нет ничего невозможного. Главная цель Леши – устроиться на работу в престижное рекламное агентство и заслужить любовь красавицы Маши. Первое желание исполняется мгновенно, а вот со вторым есть проблемы. Маша встречается с редкостным негодяем Федором, который ненавидит Лешу с самой первой встречи. Более того, Федор – Лешин шеф и правая рука главы рекламного агентства Виктора Чернышева. Леша все больше и больше увлекается чудесами ноутбука: теперь его лучший друг – Тимати, он в одно мгновение может изменить политику целого государства и создать популяцию амурских тигров в Сибири...



Страна: Россия
Студия: Худяков production
Продолжительность: 01:43:58

Файл
Качество: BDRip (AVC)
Видео: MPEG-4 AVC, 2549 Кбит/с, 1024x436, 24.000 кадр/с
Аудио: Русский (AC3, 6 ch, 448 Кбит/с)

Семпл



Общее
Уникальный идентификатор : 174995546260025792764798825599549782222 (0x83A6EA90846BD3929EEB7F61A91738CE)
Полное имя : D:Mои раздачиOdnoklassniki.ru.2013.BDRip.(AVC)-MediaClub.mkv
Формат : Matroska
Версия формата : Version 4 / Version 2
Размер файла : 2,18 Гбайт
Продолжительность : 1 ч. 43 м.
Общий поток : 2998 Кбит/сек
Название фильма : -=MediaClub-kaspr=-
Дата кодирования : UTC 2014-02-08 19:37:27
Программа кодирования : mkvmerge v6.1.0 ('Old Devil') built on Mar 4 2013 09:10:42
Библиотека кодирования : libebml v1.3.0 + libmatroska v1.4.0

Видео
Идентификатор : 1
Формат : AVC
Формат/Информация : Advanced Video Codec
Профиль формата : High@L4.1
Параметр CABAC формата : Да
Параметр ReFrames формата : 10 кадров
Идентификатор кодека : V_MPEG4/ISO/AVC
Продолжительность : 1 ч. 43 м.
Битрейт : 2549 Кбит/сек
Ширина : 1024 пикселя
Высота : 436 пикселей
Соотношение сторон : 2,35:1
Режим частоты кадров : Постоянный
Частота кадров : 24,000 кадра/сек
Цветовое пространство : YUV
Субдискретизация насыщенности : 4:2:0
Битовая глубина : 8 бит
Тип развёртки : Прогрессивная
Бит/(Пиксели*Кадры) : 0.238
Размер потока : 1,81 Гбайт (83%)
Заголовок : -=MediaClub-kaspr=-
Библиотека кодирования : x264 core 140 r2377+40 929f149 tMod [8-bit@4:2:0 X86_64]
Настройки программы : cabac=1 / ref=10 / deblock=1:-3:-3 / analyse=0x3:0x133 / me=umh / subme=11 / psy=1 / fade_compensate=0.00 / psy_rd=1.00:0.20 / mixed_ref=1 / me_range=32 / chroma_me=1 / trellis=2 / 8x8dct=1 / cqm=0 / deadzone=21,11 / fast_pskip=0 / chroma_qp_offset=-3 / threads=12 / lookahead_threads=3 / sliced_threads=0 / nr=0 / decimate=0 / interlaced=0 / bluray_compat=0 / constrained_intra=0 / fgo=0 / bframes=12 / b_pyramid=2 / b_adapt=2 / b_bias=0 / direct=3 / weightb=1 / open_gop=0 / weightp=2 / keyint=240 / keyint_min=24 / scenecut=40 / intra_refresh=0 / rc=2pass / mbtree=0 / bitrate=2549 / ratetol=1.0 / qcomp=0.60 / qpmin=0:0:0 / qpmax=69:69:69 / qpstep=4 / cplxblur=20.0 / qblur=0.5 / ip_ratio=1.40 / pb_ratio=1.30 / aq=2:0.80 / aq-sensitivity=10.00 / aq-factor=1.00:1.00:1.00 / aq2=0 / aq3=0
Default : Да
Forced : Да

Аудио
Идентификатор : 2
Формат : AC-3
Формат/Информация : Audio Coding 3
Расширение режима : CM (complete main)
Параметр Endianness формата : Big
Идентификатор кодека : A_AC3
Продолжительность : 1 ч. 43 м.
Вид битрейта : Постоянный
Битрейт : 448 Кбит/сек
Каналы : 6 каналов
Расположение каналов : Front: L C R, Side: L R, LFE
Частота : 48,0 КГц
Битовая глубина : 16 бит
Метод сжатия : С потерями
Размер потока : 333 Мбайт (15%)
Язык : Russian
Default : Да
Forced : Да

Меню
00:00:00.000 : en:Chapter 01
00:14:06.791 : en:Chapter 02
00:22:30.875 : en:Chapter 03
00:36:56.666 : en:Chapter 04
00:51:14.958 : en:Chapter 05
01:04:49.291 : en:Chapter 06
01:19:54.000 : en:Chapter 07
01:30:28.583 : en:Chapter 08


Релиз: |



   Похожие торренты   Торрент   Размер 
В этой теме нет новых непрочитанных сообщений. Одноклассники.ru: НаCLICKай удачу (2013) BDRip 720p | Лицензия

818 | 73

3.52 ГБ

В этой теме нет новых непрочитанных сообщений. Одноклассники.ru: НаCLICKай удачу (2013) BDRip-AVC от R. G. Jolly Roger | Лицензия

171 | 42

1.46 ГБ

В этой теме нет новых непрочитанных сообщений. Одноклассники.ru: НаCLICKай удачу (2013) BDRip 720p от Leonardo and Scarabey | Лицензия

579 | 71

2.94 ГБ

В этой теме нет новых непрочитанных сообщений. Одноклассники.ru: НаCLICKай удачу (2013) DVDRip | Лицензия

3879 | 223

1.37 ГБ

В этой теме нет новых непрочитанных сообщений. Одноклассники.ru: НаCLICKай удачу (2013) Blu-Ray 1080p | Лицензия

46 | 24

22.64 ГБ

В этой теме нет новых непрочитанных сообщений. Одноклассники.ru: НаCLICKай удачу (2013) HDRip | Лицензия

1673 | 87

1.46 ГБ

В этой теме нет новых непрочитанных сообщений. Одноклассники.ru: НаCLICKай удачу (2013) HDRip от Torrange | Лицензия

256 | 39

744.67 МБ




Вы не можете начинать темы
Вы не можете отвечать на сообщения
Вы не можете редактировать свои сообщения
Вы не можете удалять свои сообщения
Вы не можете добавлять вложения

Перейти:  
Для Мосгорсуда, Роскомнадзора и рекламодателей: mosgorsud-torrent[собачка]yandex.ru
 Вход
ppkBB3cker v.2 © 2008-2014 @ PPK
[ Time : 0.046s | 17 Queries | GZIP : Off ]

Торрент трекер RUTOR.IN, Не можете зайти на rutor.org? Какой новый адрес рутор? Какое зеркало рутор? Не работает rutor.org и зеркала? Тогда наш торрент специально для вас. Rutor.in неофициальное зеркало rutor. В случае если у Вас заблокирован rutor или вдруг Вы не можете на него зайти, то Вы без труда сможете скачать бесплатно и без рекламы последние новинки кино, игр, сериалов и прочего у нас, на Rutor.in. Не нужно использовать прокси, чтобы зайти на рутор, достаточно воспользоваться нашим ресурсом. Все новые фильмы, игры, сериалы, книги и музыка за 2013 и 2014 годы через торрент бесплатно. Скачивайте фильмы в хорошем качестве, игры для пк, xbox, playstation без регистрации. У нас вы найдете новые Зарубежные сериалы и Русские сериалы 2013, 2014, 2015 годов. Оставайтесь с нами, качайте любимые фильмы, игры, сериалы, книги и музыку.
cron