img image001 image001 image001 image001 image001 image001 image001 image001 image001 image001 image001 image001 image001 image001 image001

Planets Sun Sun Sun
Статистика раздачи
Автор: PriZraK | Размер: 745.25 МБ | Добавлен: 15 фев 2014
Раздают: 147    Качают: 285
Скачать торрент
Скачать торрент
Описание торрента

СообщениеДобавлено: 15 фев 2014 


#77
Страна: CCCP
Производство: Литовская киностудия

Жанр: военный
Год выпуска: 1984
Продолжительность: 01:32:04

Перевод: не требуется
Оригинальная аудиодорожка: русский
Cубтитры: нет

Режиссер: Алексей Симонов

В ролях:
А.Феклистов, С.Гармаш, Д.Брусникин, М.Морозов, Я.Степанов, А.Песков, В.Нестеров, М.Дорофеюс, А.Карин, Э.Некрошюс, Л.Лауцявичюс, Л.Белов, С.Станюта...


Литва, 1941 год. Немецкие танки и моторизованные колонны ворвались в приграничный военный городок. Семеро советских солдат оказались отрезанными от гарнизона. Без продовольствия и оружия они отправились через оккупированную территорию в расположение частей Красной Армии, и только двое из них добрались до линии фронта…





Исходник: DVВ
Тип релиза: SATRip
Контейнер: AVI

Видео: 576x432 (4:3), 25 fps, XviD ~ 994 kbps avg, 0.160 bit/pixel
Аудио: 48 kHz, MP3 2.0, 128 kbps

Раздача от:
Общее
Полное имя : Otryad.1984.SATRip_[New-team]_by_AVP_Studio.avi
Формат : AVI
Формат/Информация : Audio Video Interleave
Размер файла : 747 Мбайт
Продолжительность : 1 ч. 32 м.
Режим общего битрейта : Переменный
Общий поток : 1135 Кбит/сек
Программа кодирования : VirtualDubModRus 1.5.10.2 (build 2542/release)
Библиотека кодирования : VirtualDubMod build 2542/release

Видео
Идентификатор : 0
Формат : MPEG-4 Visual
Профиль формата : Advanced Simple@L5
Параметр BVOP формата : 1
Параметр QPel формата : Нет
Параметр GMC формата : Без точки перехода
Параметр матрицы формата : Выборочная
Идентификатор кодека : XVID
Идентификатор кодека/Подсказка : XviD
Продолжительность : 1 ч. 32 м.
Битрейт : 994 Кбит/сек
Ширина : 576 пикселей
Высота : 432 пикселя
Соотношение сторон : 4:3
Частота кадров : 25,000 кадров/сек
Цветовое пространство : YUV
Субдискретизация насыщенности : 4:2:0
Битовая глубина : 8 бит
Тип развёртки : Прогрессивная
Метод сжатия : С потерями
Бит/(Пиксели*Кадры) : 0.160
Размер потока : 655 Мбайт (88%)
Библиотека кодирования : XviD 73

Аудио
Идентификатор : 1
Формат : MPEG Audio
Версия формата : Version 1
Профиль формата : Layer 3
Режим : Joint stereo
Расширение режима : MS Stereo
Идентификатор кодека : 55
Идентификатор кодека/Подсказка : MP3
Продолжительность : 1 ч. 32 м.
Вид битрейта : Переменный
Битрейт : 128 Кбит/сек
Каналы : 2 канала
Частота : 48,0 КГц
Метод сжатия : С потерями
Размер потока : 84,3 Мбайт (11%)
Выравнивание : Соединение по промежуткам
Продолжительность промежутка : 24 мс. (0,60 видеокадр)
Время предзагрузки промежутка : 486 мс





   Похожие торренты   Торрент   Размер 
В этой теме нет новых непрочитанных сообщений. Отряд (1984) SATRip

11 | 3

700 МБ

В этой теме нет новых непрочитанных сообщений. Особое подразделение (1984) SATRip от New-Team

25 | 7

741.11 МБ

В этой теме нет новых непрочитанных сообщений. Особое подразделение (1984) SATRip-AVC от New-Team

53 | 4

744.63 МБ

В этой теме нет новых непрочитанных сообщений. Особое подразделение (1984) SATRip от New-Team

14 | 4

743.61 МБ

В этой теме нет новых непрочитанных сообщений. Особое подразделение (1984) SATRip-AVC от New-Team

159 | 10

744.63 МБ

В этой теме нет новых непрочитанных сообщений. Волчий Отряд / Wolf Team (2011) PC

14 | 5

713.25 МБ

В этой теме нет новых непрочитанных сообщений. Вторые. Отряд Кочубея [01-08 из 08] (2009) DVDRip от New-Team

130 | 24

4.37 ГБ




Вы не можете начинать темы
Вы не можете отвечать на сообщения
Вы не можете редактировать свои сообщения
Вы не можете удалять свои сообщения
Вы не можете добавлять вложения

Перейти:  
Для Мосгорсуда, Роскомнадзора и рекламодателей: mosgorsud-torrent[собачка]yandex.ru
 Вход
ppkBB3cker v.2 © 2008-2014 @ PPK
[ Time : 0.022s | 14 Queries | GZIP : Off ]

Торрент трекер RUTOR.IN, Не можете зайти на rutor.org? Какой новый адрес рутор? Какое зеркало рутор? Не работает rutor.org и зеркала? Тогда наш торрент специально для вас. Rutor.in неофициальное зеркало rutor. В случае если у Вас заблокирован rutor или вдруг Вы не можете на него зайти, то Вы без труда сможете скачать бесплатно и без рекламы последние новинки кино, игр, сериалов и прочего у нас, на Rutor.in. Не нужно использовать прокси, чтобы зайти на рутор, достаточно воспользоваться нашим ресурсом. Все новые фильмы, игры, сериалы, книги и музыка за 2013 и 2014 годы через торрент бесплатно. Скачивайте фильмы в хорошем качестве, игры для пк, xbox, playstation без регистрации. У нас вы найдете новые Зарубежные сериалы и Русские сериалы 2013, 2014, 2015 годов. Оставайтесь с нами, качайте любимые фильмы, игры, сериалы, книги и музыку.