img image001 image001 image001 image001 image001 image001 image001 image001 image001 image001 image001 image001 image001 image001 image001

Planets Sun Sun Sun
Статистика раздачи
Автор: PriZraK | Размер: 14.47 ГБ | Добавлен: 15 фев 2014
Раздают: 50    Качают: 19
Скачать торрент
Скачать торрент
Описание торрента

СообщениеДобавлено: 15 фев 2014 




Информация о фильме

Оригинальное название: Zолушка
Год выпуска: 2012
Жанр: Комедия, мелодрама
Выпущено: Россия, Bolshaya Raznitsa, Централ Партнершип, Первый канал
Режиссер: Сергей Иванов
В ролях: Кристина Асмус, Никита Ефремов, Артём Ткаченко, Елизавета Боярская, Нонна Гришаева, Александр Цекало, Юрий Стоянов, Сергей Бурунов, Анна Шерлинг, Маргарита Бычкова
О фильме: Героиня фильма, Маша Крапивина, — пока еще не красавица, и не то чтобы сказочная умница. Обычная девушка, рискнувшая, подобно тысячам ее сверстниц из самых разных уголков страны, покорить Москву, покинув свой родной провинциальный городок. Вечером учится, а с утра до вечера работает «на вредном производстве» — горничной в очень состоятельной семье. Крупу, конечно, не перебирает, но работы хватает: только успевай крутиться, чтобы угодить властной хозяйке и двум ее взбалмошным дочерям. А Маша, между тем, как и миллионы других девчонок, по уши влюблена в известного певца Алексея Королевича. Она — его самая преданная фанатка, увы, без малейшего шанса на знакомство с предметом своих девичьих грёз. И надо же такому случиться — «знатное» семейство получает приглашение на бал, а точнее, закрытую вечеринку, где соберется вся культурная элита страны, а главное — там будет выступать ОН! И совершенно очевидно, что с этой минуты Маша готова на любые жертвы, чтобы тоже оказаться там. Но как? На помощь нашей Золушке, конечно же, приходит добрая фея в лице родной тетки Агнии, главного редактора издания «Желтый PRESS». Она готова добыть для «бедной родственницы» заветное приглашение, но с одним условием: Маша отправится на вечеринку с непростым и довольно пикантным журналистским заданием… На этом совпадения с известной сказкой не заканчиваются: появится здесь и Король вполне олигархического типа, и Принц в окружении целой обоймы сегодняшних «звезд» шоу-бизнеса, и бой курантов, и даже «хрустальная туфелька», роль которой исполнит… Нет, пожалуй, пусть это пока останется тайной. Зрителям же остается лишь с удовольствием следить за перипетиями этой старой, как мир, но ооочень современной истории и надеяться на счастливый финал, если, конечно, наша Золушка вовремя успеет разобраться, что настоящий «принц» — вовсе не тот, кого она себе нафантазировала.

Файл

Качество: Blu-Ray Remux (1080i)
Видео: MPEG-2, 22986 Кбит/с, 1920x1080, 25 кадр/с
Аудио: AC3, 6 ch, 640 Кбит/с
Размер: 14.47 ГБ
Продолжительность: 01:27:40
Язык: Русский
За исходник, большое спасибо BLUEBIRD
Сохранены оригинальные чаптеры как на Blu-Ray
Общее
Уникальный идентификатор : 185606627609358224480187276732415939644 (0x8BA2894455C2A27FA659C3589BD9143C)
Полное имя : D:ЗагрузкиZолушка.2012.BDRemux.(1080i).ExKinoRay.mkv
Формат : Matroska
Версия формата : Version 2
Размер файла : 14,5 Гбайт
Продолжительность : 1 ч. 27 м.
Режим общего битрейта : Переменный
Общий поток : 23,6 Мбит/сек
Название фильма : Zолушка.2012.Сборка: ollan
Дата кодирования : UTC 2014-02-08 20:17:03
Программа кодирования : mkvmerge v5.6.0 ('Kenya Kane') built on May 27 2012 16:44:04
Библиотека кодирования : libebml v1.2.3 + libmatroska v1.3.0

Видео
Идентификатор : 1
Формат : MPEG Video
Версия формата : Version 2
Профиль формата : Main@High
Параметр BVOP формата : Нет
Параметр матрицы формата : По умолчанию
Идентификатор кодека : V_MPEG2
Идентификатор кодека/Информация : MPEG 1 or 2 Video
Продолжительность : 1 ч. 27 м.
Вид битрейта : Переменный
Битрейт : 22,5 Мбит/сек
Максимальный битрейт : 25,0 Мбит/сек
Ширина : 1920 пикселей
Высота : 1080 пикселей
Соотношение сторон : 16:9
Режим частоты кадров : Постоянный
Частота кадров : 25,000 кадров/сек
Цветовое пространство : YUV
Субдискретизация насыщенности : 4:2:0
Битовая глубина : 8 бит
Тип развёртки : Чересстрочная
Порядок развёртки : Верхнее поле первое
Метод сжатия : С потерями
Бит/(Пиксели*Кадры) : 0.434
Временной код первого кадра : 00:00:00:00
Оригинал временного кода : Group of pictures header
Размер потока : 13,8 Гбайт (95%)
Язык : Russian
Default : Да
Forced : Нет

Аудио
Идентификатор : 2
Формат : AC-3
Формат/Информация : Audio Coding 3
Расширение режима : CM (complete main)
Параметр Endianness формата : Big
Идентификатор кодека : A_AC3
Продолжительность : 1 ч. 27 м.
Вид битрейта : Постоянный
Битрейт : 640 Кбит/сек
Каналы : 6 каналов
Расположение каналов : Front: L C R, Side: L R, LFE
Частота : 48,0 КГц
Битовая глубина : 16 бит
Метод сжатия : С потерями
Задержка видео : -80 мс.
Размер потока : 401 Мбайт (3%)
Язык : Russian
Default : Да
Forced : Нет

Меню
00:00:00.000 : :Chapter 01
00:04:06.080 : :Chapter 02
00:14:49.440 : :Chapter 03
00:26:15.440 : :Chapter 04
00:37:19.920 : :Chapter 05
00:53:20.560 : :Chapter 06
01:05:11.880 : :Chapter 07
01:16:17.520 : :Chapter 08
01:24:51.640 : :Chapter 09







Релиз от: Сборка:



   Похожие торренты   Торрент   Размер 
В этой теме нет новых непрочитанных сообщений. Шерлок / Sherlock [S02] (2012) BDRemux 1080i от ExKinoRay | D

62 | 30

36.32 ГБ

В этой теме нет новых непрочитанных сообщений. Кипелов - Х лет. Крокус Сити Холл 1.12.2012 (2013) BDRemux 1080i от ExKinoRay

31 | 16

24.17 ГБ

В этой теме нет новых непрочитанных сообщений. Распутин (2013) BDRemux 1080i от ExKinoRay

7 | 2

8.27 ГБ

В этой теме нет новых непрочитанных сообщений. Спираль (2014) BDRemux 1080i от ExKinoRay

36 | 83

17.86 ГБ

В этой теме нет новых непрочитанных сообщений. Богатырша (2015) BDRemux 1080i от ExKinoRay | Лицензия

166 | 35

11.43 ГБ

В этой теме нет новых непрочитанных сообщений. Вербо / Verbo (2011) BDRemux 1080i от ExKinoRay | P

19 | 4

16.09 ГБ

В этой теме нет новых непрочитанных сообщений. Zолушка (2012) BDRip-AVC

23 | 5

745.26 МБ




Вы не можете начинать темы
Вы не можете отвечать на сообщения
Вы не можете редактировать свои сообщения
Вы не можете удалять свои сообщения
Вы не можете добавлять вложения

Перейти:  
Для Мосгорсуда, Роскомнадзора и рекламодателей: mosgorsud-torrent[собачка]yandex.ru
 Вход
ppkBB3cker v.2 © 2008-2014 @ PPK
[ Time : 0.022s | 14 Queries | GZIP : Off ]

Торрент трекер RUTOR.IN, Не можете зайти на rutor.org? Какой новый адрес рутор? Какое зеркало рутор? Не работает rutor.org и зеркала? Тогда наш торрент специально для вас. Rutor.in неофициальное зеркало rutor. В случае если у Вас заблокирован rutor или вдруг Вы не можете на него зайти, то Вы без труда сможете скачать бесплатно и без рекламы последние новинки кино, игр, сериалов и прочего у нас, на Rutor.in. Не нужно использовать прокси, чтобы зайти на рутор, достаточно воспользоваться нашим ресурсом. Все новые фильмы, игры, сериалы, книги и музыка за 2013 и 2014 годы через торрент бесплатно. Скачивайте фильмы в хорошем качестве, игры для пк, xbox, playstation без регистрации. У нас вы найдете новые Зарубежные сериалы и Русские сериалы 2013, 2014, 2015 годов. Оставайтесь с нами, качайте любимые фильмы, игры, сериалы, книги и музыку.