img image001 image001 image001 image001 image001 image001 image001 image001 image001 image001 image001 image001 image001 image001 image001

Planets Sun Sun Sun
Статистика раздачи
Автор: PriZraK | Размер: 744 МБ | Добавлен: 15 фев 2014
Раздают: 19    Качают: 5
Скачать торрент
Скачать торрент
Описание торрента

СообщениеДобавлено: 15 фев 2014 


#77
Страна: CCCP
Производство: Свердловская киностудия

Жанр: боевик, приключения
Год выпуска: 1984
Продолжительность: 01:12:32

Перевод: не требуется
Оригинальная аудиодорожка: русский
Cубтитры: нет

Режиссер: Владимир Хотиненко, Павел Фаттахутдинов

В ролях:
Василий Мищенко, Иван Агафонов, Всеволод Ларионов, Виктор Борцов, Борис Галкин, Валерий Захарьев, Андрей Зыков, Адольф Ильин, Дилором Камбарова, Михаил Кононов, Авангард Леонтьев, Елена Майорова, Талгат Нигматулин, Николай Сморчков, Янис Клушс, Пётр Олев, Петр Полев, Александр Сухих...


Действие приключенческого фильма происходят в 1927 году в небольшом губернском городке. Новым начальником уголовного розыска назначается бывший красный командир Константин Воронцов. В это время в городе появляется матерый рецидивист Корней. Благодаря успешно проведенной операции, становится известно место воровского схода, но Корней, предчувствуя засаду, в последний момент меняет место встречи. Времени предупредить своих у Воронцова нет, и ему приходится одному идти на воровской сход…





Исходник: DVD5 R5
Тип релиза: DVDRip
Контейнер: AVI

Видео: 688x528 (4:3), 25 fps, XviD ~ 1296 kbps avg, 0.143 bit/pixel
Аудио: 48 kHz, MP3 2.0, 128 kbps

Раздача от:
Общее
Полное имя : Odin.i.bez.oruzhiya.1984.DVDRip-745_[New-team]_by_AVP_Studio.avi
Формат : AVI
Формат/Информация : Audio Video Interleave
Размер файла : 744 Мбайт
Продолжительность : 1 ч. 12 м.
Общий поток : 1434 Кбит/сек
Программа кодирования : VirtualDubModRus 1.5.10.2 (build 2542/release)
Библиотека кодирования : VirtualDubMod build 2542/release

Видео
Идентификатор : 0
Формат : MPEG-4 Visual
Профиль формата : Advanced Simple@L5
Параметр BVOP формата : 1
Параметр QPel формата : Нет
Параметр GMC формата : Без точки перехода
Параметр матрицы формата : Выборочная
Идентификатор кодека : XVID
Идентификатор кодека/Подсказка : XviD
Продолжительность : 1 ч. 12 м.
Битрейт : 1296 Кбит/сек
Ширина : 688 пикселей
Высота : 528 пикселей
Соотношение сторон : 4:3
Частота кадров : 25,000 кадров/сек
Цветовое пространство : YUV
Субдискретизация насыщенности : 4:2:0
Битовая глубина : 8 бит
Тип развёртки : Прогрессивная
Метод сжатия : С потерями
Бит/(Пиксели*Кадры) : 0.143
Размер потока : 673 Мбайт (90%)
Библиотека кодирования : XviD 73

Аудио
Идентификатор : 1
Формат : MPEG Audio
Версия формата : Version 1
Профиль формата : Layer 3
Режим : Joint stereo
Идентификатор кодека : 55
Идентификатор кодека/Подсказка : MP3
Продолжительность : 1 ч. 12 м.
Вид битрейта : Постоянный
Битрейт : 128 Кбит/сек
Каналы : 2 канала
Частота : 48,0 КГц
Метод сжатия : С потерями
Размер потока : 66,4 Мбайт (9%)
Выравнивание : Соединение по промежуткам
Продолжительность промежутка : 40 мс. (1,00 видеокадр)
Время предзагрузки промежутка : 504 мс





   Похожие торренты   Торрент   Размер 
В этой теме нет новых непрочитанных сообщений. Один и без оружия (1984) DVDRip-AVC от New-Team

193 | 12

1.46 ГБ

В этой теме нет новых непрочитанных сообщений. Один и без оружия (1984) DVDRip от New-Team

21 | 3

1.46 ГБ

В этой теме нет новых непрочитанных сообщений. Один и без оружия (1984) DVDRip

3 | 2

1.36 ГБ

В этой теме нет новых непрочитанных сообщений. Плюс один (2008) DVDRip от New-Team

216 | 8

1.46 ГБ

В этой теме нет новых непрочитанных сообщений. Плюс один - Фильм о фильме (2008) DVDRip от New-Team

11 | 5

357.84 МБ

В этой теме нет новых непрочитанных сообщений. Как один мужик двух генералов прокормил (1965) DVDRip-AVC от New-Team

77 | 11

320.71 МБ

В этой теме нет новых непрочитанных сообщений. Как один мужик двух генералов прокормил (1965) DVDRip от New-Team

39 | 10

319.49 МБ




Вы не можете начинать темы
Вы не можете отвечать на сообщения
Вы не можете редактировать свои сообщения
Вы не можете удалять свои сообщения
Вы не можете добавлять вложения

Перейти:  
Для Мосгорсуда, Роскомнадзора и рекламодателей: mosgorsud-torrent[собачка]yandex.ru
 Вход
ppkBB3cker v.2 © 2008-2014 @ PPK
[ Time : 0.870s | 15 Queries | GZIP : Off ]

Торрент трекер RUTOR.IN, Не можете зайти на rutor.org? Какой новый адрес рутор? Какое зеркало рутор? Не работает rutor.org и зеркала? Тогда наш торрент специально для вас. Rutor.in неофициальное зеркало rutor. В случае если у Вас заблокирован rutor или вдруг Вы не можете на него зайти, то Вы без труда сможете скачать бесплатно и без рекламы последние новинки кино, игр, сериалов и прочего у нас, на Rutor.in. Не нужно использовать прокси, чтобы зайти на рутор, достаточно воспользоваться нашим ресурсом. Все новые фильмы, игры, сериалы, книги и музыка за 2013 и 2014 годы через торрент бесплатно. Скачивайте фильмы в хорошем качестве, игры для пк, xbox, playstation без регистрации. У нас вы найдете новые Зарубежные сериалы и Русские сериалы 2013, 2014, 2015 годов. Оставайтесь с нами, качайте любимые фильмы, игры, сериалы, книги и музыку.
cron