img image001 image001 image001 image001 image001 image001 image001 image001 image001 image001 image001 image001 image001 image001 image001

Planets Sun Sun Sun
Статистика раздачи
Автор: PriZraK | Размер: 1.46 ГБ | Добавлен: 15 фев 2014
Раздают: 193    Качают: 12
Скачать торрент
Скачать торрент
Описание торрента

СообщениеДобавлено: 15 фев 2014 


#77
Страна: CCCP
Производство: Свердловская киностудия

Жанр: боевик, приключения
Год выпуска: 1984
Продолжительность: 01:12:32

Перевод: не требуется
Оригинальная аудиодорожка: русский
Cубтитры: нет

Режиссер: Владимир Хотиненко, Павел Фаттахутдинов

В ролях:
Василий Мищенко, Иван Агафонов, Всеволод Ларионов, Виктор Борцов, Борис Галкин, Валерий Захарьев, Андрей Зыков, Адольф Ильин, Дилором Камбарова, Михаил Кононов, Авангард Леонтьев, Елена Майорова, Талгат Нигматулин, Николай Сморчков, Янис Клушс, Пётр Олев, Петр Полев, Александр Сухих...


Действие приключенческого фильма происходят в 1927 году в небольшом губернском городке. Новым начальником уголовного розыска назначается бывший красный командир Константин Воронцов. В это время в городе появляется матерый рецидивист Корней. Благодаря успешно проведенной операции, становится известно место воровского схода, но Корней, предчувствуя засаду, в последний момент меняет место встречи. Времени предупредить своих у Воронцова нет, и ему приходится одному идти на воровской сход…





Исходник: DVD5 R5
Тип релиза: DVDRip-AVC
Контейнер: MKV

Видео: 696->744x572 (4:3), 25 fps, H264 ~ 2488 kbps avg, 0.250 bit/pixel
Аудио: 48 kHz, Dolby Digital AC3 5.1, 384 kbps

Раздача от:
Общее
Полное имя : Odin.i.bez.oruzhiya.1984.DVDRip-AVC_[New-team]_by_AVP_Studio.mkv
Формат : Matroska
Версия формата : Version 4 / Version 2
Размер файла : 1,46 Гбайт
Продолжительность : 1 ч. 12 м.
Общий поток : 2874 Кбит/сек
Название фильма : Odin.i.bez.oruzhiya.1984.DVDRip-AVC_[New-team]_by_AVP_Studio
Дата кодирования : UTC 2014-02-08 09:53:49
Программа кодирования : mkvmerge v6.7.0 ('Back to the Ground') 64bit built on Jan 8 2014 15:10:52
Библиотека кодирования : libebml v1.3.0 + libmatroska v1.4.1

Видео
Идентификатор : 1
Формат : AVC
Формат/Информация : Advanced Video Codec
Профиль формата : High@L4.1
Параметр CABAC формата : Да
Параметр ReFrames формата : 8 кадров
Идентификатор кодека : V_MPEG4/ISO/AVC
Продолжительность : 1 ч. 12 м.
Битрейт : 2488 Кбит/сек
Ширина : 696 пикселей
Высота : 572 пикселя
Соотношение сторон : 4:3
Соотношение сторон в оригинале : 4:3
Режим частоты кадров : Постоянный
Частота кадров : 25,000 кадров/сек
Цветовое пространство : YUV
Субдискретизация насыщенности : 4:2:0
Битовая глубина : 8 бит
Тип развёртки : Прогрессивная
Бит/(Пиксели*Кадры) : 0.250
Размер потока : 1,23 Гбайт (85%)
Заголовок : Источник DVD
Библиотека кодирования : x264 core 138 r2356 a1d3d17
Настройки программы : cabac=1 / ref=8 / deblock=1:-2:-1 / analyse=0x3:0x113 / me=umh / subme=10 / psy=1 / psy_rd=1.00:0.05 / mixed_ref=1 / me_range=32 / chroma_me=1 / trellis=2 / 8x8dct=1 / cqm=0 / deadzone=21,11 / fast_pskip=0 / chroma_qp_offset=-3 / threads=3 / lookahead_threads=1 / sliced_threads=0 / nr=0 / decimate=0 / interlaced=0 / bluray_compat=0 / constrained_intra=0 / bframes=8 / b_pyramid=2 / b_adapt=2 / b_bias=0 / direct=3 / weightb=1 / open_gop=0 / weightp=2 / keyint=250 / keyint_min=25 / scenecut=40 / intra_refresh=0 / rc=2pass / mbtree=0 / bitrate=2488 / ratetol=1.0 / qcomp=0.60 / qpmin=0 / qpmax=69 / qpstep=4 / cplxblur=20.0 / qblur=0.5 / ip_ratio=1.40 / pb_ratio=1.30 / aq=1:1.00
Язык : Russian
Default : Да
Forced : Нет

Аудио
Идентификатор : 2
Формат : AC-3
Формат/Информация : Audio Coding 3
Расширение режима : CM (complete main)
Параметр Endianness формата : Big
Идентификатор кодека : A_AC3
Продолжительность : 1 ч. 12 м.
Вид битрейта : Постоянный
Битрейт : 384 Кбит/сек
Каналы : 6 каналов
Расположение каналов : Front: L C R, Side: L R, LFE
Частота : 48,0 КГц
Битовая глубина : 16 бит
Метод сжатия : С потерями
Размер потока : 199 Мбайт (13%)
Заголовок : Источник DVD Dolby Digital 5,1 384kb
Язык : Russian
Default : Да
Forced : Нет





   Похожие торренты   Торрент   Размер 
В этой теме нет новых непрочитанных сообщений. Один и без оружия (1984) DVDRip от New-Team

19 | 5

744 МБ

В этой теме нет новых непрочитанных сообщений. Один и без оружия (1984) DVDRip от New-Team

21 | 3

1.46 ГБ

В этой теме нет новых непрочитанных сообщений. Один и без оружия (1984) DVDRip

3 | 2

1.36 ГБ

В этой теме нет новых непрочитанных сообщений. Плюс один (2008) DVDRip от New-Team

216 | 8

1.46 ГБ

В этой теме нет новых непрочитанных сообщений. Плюс один - Фильм о фильме (2008) DVDRip от New-Team

11 | 5

357.84 МБ

В этой теме нет новых непрочитанных сообщений. Как один мужик двух генералов прокормил (1965) DVDRip от New-Team

39 | 10

319.49 МБ

В этой теме нет новых непрочитанных сообщений. Как один мужик двух генералов прокормил (1965) DVDRip-AVC от New-Team

77 | 11

320.71 МБ




Вы не можете начинать темы
Вы не можете отвечать на сообщения
Вы не можете редактировать свои сообщения
Вы не можете удалять свои сообщения
Вы не можете добавлять вложения

Перейти:  
Для Мосгорсуда, Роскомнадзора и рекламодателей: mosgorsud-torrent[собачка]yandex.ru
 Вход
ppkBB3cker v.2 © 2008-2014 @ PPK
[ Time : 4.348s | 16 Queries | GZIP : Off ]
CGP output time : 0.023s | 7 Queries | GZIP : Off

Торрент трекер RUTOR.IN, Не можете зайти на rutor.org? Какой новый адрес рутор? Какое зеркало рутор? Не работает rutor.org и зеркала? Тогда наш торрент специально для вас. Rutor.in неофициальное зеркало rutor. В случае если у Вас заблокирован rutor или вдруг Вы не можете на него зайти, то Вы без труда сможете скачать бесплатно и без рекламы последние новинки кино, игр, сериалов и прочего у нас, на Rutor.in. Не нужно использовать прокси, чтобы зайти на рутор, достаточно воспользоваться нашим ресурсом. Все новые фильмы, игры, сериалы, книги и музыка за 2013 и 2014 годы через торрент бесплатно. Скачивайте фильмы в хорошем качестве, игры для пк, xbox, playstation без регистрации. У нас вы найдете новые Зарубежные сериалы и Русские сериалы 2013, 2014, 2015 годов. Оставайтесь с нами, качайте любимые фильмы, игры, сериалы, книги и музыку.