img image001 image001 image001 image001 image001 image001 image001 image001 image001 image001 image001 image001 image001 image001 image001

Planets Sun Sun Sun
Статистика раздачи
Автор: PriZraK | Размер: 4.37 ГБ | Добавлен: 15 фев 2014
Раздают: 174    Качают: 22
Скачать торрент
Скачать торрент
Описание торрента

СообщениеДобавлено: 15 фев 2014 




Информация о фильме
Оригинальное название: Полосатый рейс
Год выхода: 1961
Жанр: комедия, приключения, семейный
Режиссер: Владимир Фетин
В ролях: Алексей Грибов, Иван Дмитриев, Маргарита Назарова, Евгений Леонов, Владимир Белокуров, Николай Волков, Александр Бениаминов, Аркадий Трусов, Алексей Смирнов, Алексей Кожевников, Галина Короткевич, Владимир Трошин, Ефим Копелян

О фильме:
На советский теплоход погрузили опасный груз — тигров и львов, а сопровождать приставили буфетчика… Во время плавания маленькая обезьянка, подаренная капитану, открывает клетки. Хищники выходят на свободу, вся команда в ужасе разбегается. И только племяннице капитана удается спасти положение, укротив диких зверей…



Выпущено: СССР
Продолжительность: 01:27:07
Перевод: Оригинал

Файл
Кодек: x264
Качество: BDRip 1080p
Видео: 1480x1080, 6738 Kbps, 23.976 fps
Аудио: AC-3, 6 ch, 448 kbps
Субтитры: русские, английские

Общее
Уникальный идентификатор : 177011828478933045594331731082820577588 (0x852B3CF3FABF4E41B63FB93605A1E934)
Полное имя : Полосатый рейс.1961.BDRip.1080p.Rus.mkv
Формат : Matroska
Версия формата : Version 2
Размер файла : 4,37 Гбайт
Продолжительность : 1 ч. 27 м.
Общий поток : 7187 Кбит/сек
Название фильма : Полосатый рейс.1961
Дата кодирования : UTC 2014-02-09 16:14:27
Программа кодирования : mkvmerge v5.8.0 ('No Sleep / Pillow') built on Sep 2 2012 15:37:04
Библиотека кодирования : libebml v1.2.3 + libmatroska v1.3.0

Видео
Идентификатор : 1
Формат : AVC
Формат/Информация : Advanced Video Codec
Профиль формата : High@L4.1
Параметр CABAC формата : Да
Параметр ReFrames формата : 4 кадра
Идентификатор кодека : V_MPEG4/ISO/AVC
Продолжительность : 1 ч. 27 м.
Битрейт : 6738 Кбит/сек
Ширина : 1480 пикселей
Высота : 1080 пикселей
Соотношение сторон : 1,370
Режим частоты кадров : Постоянный
Частота кадров : 23,976 кадра/сек
Цветовое пространство : YUV
Субдискретизация насыщенности : 4:2:0
Битовая глубина : 8 бит
Тип развёртки : Прогрессивная
Бит/(Пиксели*Кадры) : 0.176
Размер потока : 4,01 Гбайт (92%)
Заголовок : Rip by Boriy
Библиотека кодирования : x264 core 142 r2389 956c8d8
Настройки программы : cabac=1 / ref=4 / deblock=1:-3:-3 / analyse=0x3:0x113 / me=umh / subme=11 / psy=1 / psy_rd=1.00:0.00 / mixed_ref=1 / me_range=32 / chroma_me=1 / trellis=2 / 8x8dct=1 / cqm=0 / deadzone=21,11 / fast_pskip=0 / chroma_qp_offset=-2 / threads=12 / lookahead_threads=1 / sliced_threads=0 / nr=0 / decimate=0 / interlaced=0 / bluray_compat=0 / constrained_intra=0 / bframes=6 / b_pyramid=2 / b_adapt=2 / b_bias=0 / direct=3 / weightb=1 / open_gop=0 / weightp=2 / keyint=240 / keyint_min=23 / scenecut=40 / intra_refresh=0 / rc=2pass / mbtree=0 / bitrate=6738 / ratetol=1.0 / qcomp=0.60 / qpmin=0 / qpmax=69 / qpstep=4 / cplxblur=20.0 / qblur=0.5 / ip_ratio=1.40 / pb_ratio=1.30 / aq=1:0.80
Язык : English
Default : Да
Forced : Нет

Аудио
Идентификатор : 2
Формат : AC-3
Формат/Информация : Audio Coding 3
Расширение режима : CM (complete main)
Параметр Endianness формата : Big
Идентификатор кодека : A_AC3
Продолжительность : 1 ч. 27 м.
Вид битрейта : Постоянный
Битрейт : 448 Кбит/сек
Каналы : 6 каналов
Расположение каналов : Front: L C R, Side: L R, LFE
Частота : 48,0 КГц
Битовая глубина : 16 бит
Метод сжатия : С потерями
Размер потока : 279 Мбайт (6%)
Заголовок : Оригинал
Язык : Russian
Default : Да
Forced : Нет

Текст #1
Идентификатор : 3
Формат : UTF-8
Идентификатор кодека : S_TEXT/UTF8
Идентификатор кодека/Информация : UTF-8 Plain Text
Язык : Russian
Default : Нет
Forced : Нет

Текст #2
Идентификатор : 4
Формат : UTF-8
Идентификатор кодека : S_TEXT/UTF8
Идентификатор кодека/Информация : UTF-8 Plain Text
Язык : English
Default : Нет
Forced : Нет

Меню
00:00:00.000 : :Chapter 1
00:03:10.190 : :Chapter 2
00:11:23.683 : :Chapter 3
00:14:34.874 : :Chapter 4
00:26:39.598 : :Chapter 5
00:31:30.889 : :Chapter 6
00:38:07.285 : :Chapter 7
00:43:13.591 : :Chapter 8
00:51:36.093 : :Chapter 9
01:04:49.886 : :Chapter 10
01:14:44.479 : :Chapter 11
01:23:28.003 : :Chapter 12



   Похожие торренты   Торрент   Размер 
В этой теме нет новых непрочитанных сообщений. Полосатый рейс / Полосатый рейс (1961) BDRip 1080p

48 | 40

7.97 ГБ

В этой теме нет новых непрочитанных сообщений. Полосатый рейс (1961) BDRemux 1080p

34 | 19

14.6 ГБ

В этой теме нет новых непрочитанных сообщений. Полосатый рейс (1961) BDRip от HQCLUB

251 | 23

1.45 ГБ

В этой теме нет новых непрочитанных сообщений. Полосатый рейс (1961) BDRip-AVC от MediaClub

100 | 10

2.28 ГБ

В этой теме нет новых непрочитанных сообщений. Полосатый рейс (1961) BDRip 720p от MediaClub

28 | 2

3.32 ГБ

В этой теме нет новых непрочитанных сообщений. Полосатый рейс (1961) DVDRip

118 | 6

1.99 ГБ

В этой теме нет новых непрочитанных сообщений. Полосатый рейс (1961) HDRip от New-Team

92 | 5

744.12 МБ




Вы не можете начинать темы
Вы не можете отвечать на сообщения
Вы не можете редактировать свои сообщения
Вы не можете удалять свои сообщения
Вы не можете добавлять вложения

Перейти:  
Для Мосгорсуда, Роскомнадзора и рекламодателей: mosgorsud-torrent[собачка]yandex.ru
 Вход
ppkBB3cker v.2 © 2008-2014 @ PPK
[ Time : 1.398s | 14 Queries | GZIP : Off ]

Торрент трекер RUTOR.IN, Не можете зайти на rutor.org? Какой новый адрес рутор? Какое зеркало рутор? Не работает rutor.org и зеркала? Тогда наш торрент специально для вас. Rutor.in неофициальное зеркало rutor. В случае если у Вас заблокирован rutor или вдруг Вы не можете на него зайти, то Вы без труда сможете скачать бесплатно и без рекламы последние новинки кино, игр, сериалов и прочего у нас, на Rutor.in. Не нужно использовать прокси, чтобы зайти на рутор, достаточно воспользоваться нашим ресурсом. Все новые фильмы, игры, сериалы, книги и музыка за 2013 и 2014 годы через торрент бесплатно. Скачивайте фильмы в хорошем качестве, игры для пк, xbox, playstation без регистрации. У нас вы найдете новые Зарубежные сериалы и Русские сериалы 2013, 2014, 2015 годов. Оставайтесь с нами, качайте любимые фильмы, игры, сериалы, книги и музыку.