img image001 image001 image001 image001 image001 image001 image001 image001 image001 image001 image001 image001 image001 image001 image001

Planets Sun Sun Sun
Статистика раздачи
Автор: PriZraK | Размер: 1.45 ГБ | Добавлен: 15 фев 2014
Раздают: 50    Качают: 18
Скачать торрент
Скачать торрент
Описание торрента

СообщениеДобавлено: 15 фев 2014 


#77
Страна: CCCP
Производство: Студия Горького

Жанр: военный
Год выпуска: 1985
Продолжительность: 01:18:18

Перевод: не требуется
Оригинальная аудиодорожка: русский
Cубтитры: нет

Режиссер: Валерий Михайловский

В ролях:
Мирдза Мартинсоне, Мурат Мамбетов, Сергей Варчук, Андрей Троицкий, Михаил Розанов, Андрей Подошьян, Кирилл Лавров, Борис Новиков, Геннадий Фролов, Иван Агафонов, Даниил Нетребин, Артем Иноземцев, Надежда Новикова, Сергей Самойлов, Виктор Мамаев...


Великая Отечественная война. Советское командование Западного фронта намеревается перебросить в тыл врага разведчицу Ниеле, ранее жившую в Берлине, и с помощью немецкого пленного офицера, внука одного из военноначальников рейха, выйти на генерала фон Герлица. Ради этой цели нужно пожертвовать всем…





Исходник: DVD5 R5
Тип релиза: DVDRip
Контейнер: AVI

Видео: 688x336 (2.048:1), 25 fps, XviD ~ 2457 kbps avg, 0.425 bit/pixel
Аудио: 48 kHz, Dolby Digital AC3 2.0, 192 kbps

Раздача от:
Общее
Полное имя : Taynaya.progulka.1985.DVDRip_[New-team]_by_AVP_Studio.avi
Формат : AVI
Формат/Информация : Audio Video Interleave
Размер файла : 1,45 Гбайт
Продолжительность : 1 ч. 18 м.
Общий поток : 2659 Кбит/сек
Программа кодирования : VirtualDubModRus 1.5.10.2 (build 2542/release)
Библиотека кодирования : VirtualDubMod build 2542/release

Видео
Идентификатор : 0
Формат : MPEG-4 Visual
Профиль формата : Advanced Simple@L5
Параметр BVOP формата : 1
Параметр QPel формата : Нет
Параметр GMC формата : Без точки перехода
Параметр матрицы формата : Выборочная
Идентификатор кодека : XVID
Идентификатор кодека/Подсказка : XviD
Продолжительность : 1 ч. 18 м.
Битрейт : 2457 Кбит/сек
Ширина : 688 пикселей
Высота : 336 пикселей
Соотношение сторон : 2,048
Частота кадров : 25,000 кадров/сек
Цветовое пространство : YUV
Субдискретизация насыщенности : 4:2:0
Битовая глубина : 8 бит
Тип развёртки : Прогрессивная
Метод сжатия : С потерями
Бит/(Пиксели*Кадры) : 0.425
Размер потока : 1,34 Гбайт (92%)
Библиотека кодирования : XviD 73

Аудио
Идентификатор : 1
Формат : AC-3
Формат/Информация : Audio Coding 3
Расширение режима : CM (complete main)
Параметр Endianness формата : Big
Идентификатор кодека : 2000
Продолжительность : 1 ч. 18 м.
Вид битрейта : Постоянный
Битрейт : 192 Кбит/сек
Каналы : 2 канала
Расположение каналов : Front: L R
Частота : 48,0 КГц
Битовая глубина : 16 бит
Метод сжатия : С потерями
Размер потока : 108 Мбайт (7%)
Выравнивание : Разделение по промежуткам
Продолжительность промежутка : 40 мс. (1,00 видеокадр)
Время предзагрузки промежутка : 500 мс



Немецкий патруль ездит на послевоенном советском мотоцикле К-750.
Горжет жандарма в фильме отличается от принятого в вермахте. В частности, фигура орла сильно уменьшена, верхняя кромка пластины слишком высокая.



   Похожие торренты   Торрент   Размер 
В этой теме нет новых непрочитанных сообщений. Тайная прогулка (1985) DVDRip-AVC от New-Team

79 | 38

1.46 ГБ

В этой теме нет новых непрочитанных сообщений. Тайная прогулка (1985) DVDRip от New-Team

23 | 5

743.19 МБ

В этой теме нет новых непрочитанных сообщений. Тайная прогулка (1985) SATRip от by Magy®

21 | 6

1.39 ГБ

В этой теме нет новых непрочитанных сообщений. Тайная команда / Mystery Team (2009) DVDRip

0 | 2

740.78 МБ

В этой теме нет новых непрочитанных сообщений. Тайная команда / Mystery Team (2009) DVDRip

1 | 2

1.37 ГБ

В этой теме нет новых непрочитанных сообщений. Прогулка по солнечному свету / Walking on Sunshine (2014) DVDRip-AVC от New-Team | D | лицензия

54 | 6

1.45 ГБ

В этой теме нет новых непрочитанных сообщений. Прогулка по солнечному свету / Walking on Sunshine (2014) DVDRip от New-Team | D | лицензия

91 | 13

1.46 ГБ




Вы не можете начинать темы
Вы не можете отвечать на сообщения
Вы не можете редактировать свои сообщения
Вы не можете удалять свои сообщения
Вы не можете добавлять вложения

Перейти:  
Для Мосгорсуда, Роскомнадзора и рекламодателей: mosgorsud-torrent[собачка]yandex.ru
 Вход
ppkBB3cker v.2 © 2008-2014 @ PPK
[ Time : 0.028s | 14 Queries | GZIP : Off ]

Торрент трекер RUTOR.IN, Не можете зайти на rutor.org? Какой новый адрес рутор? Какое зеркало рутор? Не работает rutor.org и зеркала? Тогда наш торрент специально для вас. Rutor.in неофициальное зеркало rutor. В случае если у Вас заблокирован rutor или вдруг Вы не можете на него зайти, то Вы без труда сможете скачать бесплатно и без рекламы последние новинки кино, игр, сериалов и прочего у нас, на Rutor.in. Не нужно использовать прокси, чтобы зайти на рутор, достаточно воспользоваться нашим ресурсом. Все новые фильмы, игры, сериалы, книги и музыка за 2013 и 2014 годы через торрент бесплатно. Скачивайте фильмы в хорошем качестве, игры для пк, xbox, playstation без регистрации. У нас вы найдете новые Зарубежные сериалы и Русские сериалы 2013, 2014, 2015 годов. Оставайтесь с нами, качайте любимые фильмы, игры, сериалы, книги и музыку.