img image001 image001 image001 image001 image001 image001 image001 image001 image001 image001 image001 image001 image001 image001 image001

Planets Sun Sun Sun
Статистика раздачи
Автор: PriZraK | Размер: 303.15 МБ | Добавлен: 15 фев 2014
Раздают: 33    Качают: 2
Скачать торрент
Скачать торрент
Описание торрента

СообщениеДобавлено: 15 фев 2014 




Информация о фильме
Название: Каунасский блюз
Оригинальное название: Kauno Bliuzas
Год выхода: 2004
Жанр: Короткометражка, драма, психологический, мистика
Режиссёр: Павел Санаев

В ролях: Донатас Банионис, Альгимантас Масюлис, Любомирас Лауцевичюс, Екатерина Редникова, Иоланта Дапкунайте, Ритис Скрипка

О фильме: 78-ми летний старик, Альгис, решает добровольно уйти из жизни, чтобы избавить себя от страха еще более глубокой старости и смерти. Однако в этот тяжелый момент он узнает, что его выбор повлечет за собой гибельные последствия для невинных людей...



Страна: Россия, Литва
Выпущено: Павел Санаев и студия "Глобус", Betacam
Продолжительность: 00:28:40
Перевод: Профессиональный одноголосый
Cубтитры: Отсутствуют

Файл
Качество: DVDRip (Исходник: DVD-5)
Видео: XviD, 640x480 (4:3), 1340 Кбит/с, 25 кадр/с
Аудио: Русский, MP3, 48000 Гц, 128 Кбит/с Стерео (2 канала)



Автор Rip'а - ivandubskoj

Общее
Полное имя : Kaunasskij.Bluz.2004.DVDRip.avi
Формат : AVI
Формат/Информация : Audio Video Interleave
Размер файла : 303 Мбайт
Продолжительность : 28 м.
Общий поток : 1478 Кбит/сек
Название фильма : Каунасский блюз (2004) DVDRip
Жанр : Короткометражка, драма, мистика
Дата записи : 11.02.2014
Программа кодирования : VirtualDubMod 1.5.10.3 (build 2550/release)
Библиотека кодирования : VirtualDubMod build 2550/release
Правообладатель : rip by ivandubskoj

Видео
Идентификатор : 0
Формат : MPEG-4 Visual
Профиль формата : Advanced Simple@L5
Параметр BVOP формата : 1
Параметр QPel формата : Нет
Параметр GMC формата : Без точки перехода
Параметр матрицы формата : Default (H.263)
Идентификатор кодека : XVID
Идентификатор кодека/Подсказка : XviD
Продолжительность : 28 м.
Битрейт : 1340 Кбит/сек
Ширина : 640 пикселей
Высота : 480 пикселей
Соотношение сторон : 4:3
Частота кадров : 25,000 кадров/сек
Цветовое пространство : YUV
Субдискретизация насыщенности : 4:2:0
Битовая глубина : 8 бит
Тип развёртки : Прогрессивная
Метод сжатия : С потерями
Бит/(Пиксели*Кадры) : 0.174
Размер потока : 275 Мбайт (91%)
Библиотека кодирования : XviD 73

Аудио
Идентификатор : 1
Формат : MPEG Audio
Версия формата : Version 1
Профиль формата : Layer 3
Идентификатор кодека : 55
Идентификатор кодека/Подсказка : MP3
Продолжительность : 28 м.
Вид битрейта : Постоянный
Битрейт : 128 Кбит/сек
Каналы : 2 канала
Частота : 48,0 КГц
Метод сжатия : С потерями
Размер потока : 26,3 Мбайт (9%)
Выравнивание : Соединение по промежуткам
Продолжительность промежутка : 40 мс. (1,00 видеокадр)
Время предзагрузки промежутка : 504 мс.
Заголовок : Russian (VO)
Библиотека кодирования : LAME3.99r
Настройки программы : -m s -V 4 -q 0 -lowpass 17 -b 128





   Похожие торренты   Торрент   Размер 
В этой теме нет новых непрочитанных сообщений. Каунасский блюз / Kauno Bliuzas (2004) DVDRip от Files-x

0 | 2

500.19 МБ

В этой теме нет новых непрочитанных сообщений. Биг Блюз Ривайвл - Северный Блюз (Памяти А. Северного) (2004) MP3

19 | 13

101.27 МБ

В этой теме нет новых непрочитанных сообщений. Пограничный блюз / Border Blues (2004) DVDRip | P2

79 | 30

1.46 ГБ

В этой теме нет новых непрочитанных сообщений. Турбофорсаж / Autobahn Racer (2004) DVDRip от ivandubskoj | P

228 | 46

701.71 МБ

В этой теме нет новых непрочитанных сообщений. Турбофорсаж / Autobahn Racer (2004) DVDRip от ivandubskoj | P

216 | 131

1.46 ГБ

В этой теме нет новых непрочитанных сообщений. Жестокие игры 3 / Cruel Intentions 3 (2004) DVDRip от ivandubskoj | P

58 | 26

701.27 МБ

В этой теме нет новых непрочитанных сообщений. Звери - Напитки покрепче [Клип] (2004) DVDRip от ivandubskoj

13 | 4

58.85 МБ




Вы не можете начинать темы
Вы не можете отвечать на сообщения
Вы не можете редактировать свои сообщения
Вы не можете удалять свои сообщения
Вы не можете добавлять вложения

Перейти:  
Для Мосгорсуда, Роскомнадзора и рекламодателей: mosgorsud-torrent[собачка]yandex.ru
 Вход
ppkBB3cker v.2 © 2008-2014 @ PPK
[ Time : 0.108s | 14 Queries | GZIP : Off ]

Торрент трекер RUTOR.IN, Не можете зайти на rutor.org? Какой новый адрес рутор? Какое зеркало рутор? Не работает rutor.org и зеркала? Тогда наш торрент специально для вас. Rutor.in неофициальное зеркало rutor. В случае если у Вас заблокирован rutor или вдруг Вы не можете на него зайти, то Вы без труда сможете скачать бесплатно и без рекламы последние новинки кино, игр, сериалов и прочего у нас, на Rutor.in. Не нужно использовать прокси, чтобы зайти на рутор, достаточно воспользоваться нашим ресурсом. Все новые фильмы, игры, сериалы, книги и музыка за 2013 и 2014 годы через торрент бесплатно. Скачивайте фильмы в хорошем качестве, игры для пк, xbox, playstation без регистрации. У нас вы найдете новые Зарубежные сериалы и Русские сериалы 2013, 2014, 2015 годов. Оставайтесь с нами, качайте любимые фильмы, игры, сериалы, книги и музыку.