img image001 image001 image001 image001 image001 image001 image001 image001 image001 image001 image001 image001 image001 image001 image001

Planets Sun Sun Sun
Статистика раздачи
Автор: PriZraK | Размер: 1.07 ГБ | Добавлен: 15 фев 2014
Раздают: 23    Качают: 2
Скачать торрент
Скачать торрент
Описание торрента

СообщениеДобавлено: 15 фев 2014 


#77

2 дня (2011) HDRip-AVC | iPhone


Название: 2 дня
Оригинальное название: 2 дня
Год выхода: 2011
Жанр: драма, мелодрама, комедия, ...
Режиссер: Авдотья Смирнова
В ролях: Фёдор Бондарчук, Ксения Раппопорт, Евгений Муравич, Ирина Розанова, Борис Каморзин, Геннадий Смирнов, Константин Шелестун, Мария Семенова, Андрей Смирнов, Ольга Дыховичная

О фильме:
Петр Дроздов, высокопоставленный чиновник из Москвы, приезжает в провинциальный музей полузабытого классика русской литературы по просьбе губернатора области, который хочет отнять у музея земельные владения и построить на них новую резиденцию. И поначалу Дроздов поддерживает это решение, но знакомство с Машей, молодым литературоведом, работающей в музее заместителем директора, меняет его взгляд не только на эту проблему, но и вообще на всю его жизнь...


Страна: Россия
Студия: Central Partnership, Арт Пикчерс Студия
Продолжительность: 01:29:44
Перевод: не требуется

Файл
Кодек: H.264
Качество: HDRip-AVC 480p iPhone
Видео: 640x362@851x362 (2.35:1) at 23.976 fps, AVC at 1530 kbps
Звук:
1: 48 kHz, AAC 2.0, 180 kbps - Русский
Субтитры: отсутствуют

General
Complete name : C:CREATE480outDva Dnya.2011 (SD).m4v
Format : MPEG-4
Codec ID : M4V
File size : 1.07 GiB
Duration : 1h 29mn
Overall bit rate mode : Variable
Overall bit rate : 1 710 Kbps
Movie name : 2 дня
Performer : Авдотья Смирнова
Genre : Drama
Recorded date : UTC 2011-09-08 08:00:00
Encoded date : UTC 2014-02-12 14:24:51
Tagged date : UTC 2014-02-12 14:39:29
Copyright : Central Partnership, Арт Пикчерс Студия
Cover : Yes
iTunEXTC : de-movie|ab 16 Jahren|500|

sonm : Dva Dnya
desc : Петр Дроздов, высокопоставленный чиновник из Москвы, приезжает в провинциальный музей полузабытого классика русской литературы по просьбе губернатора области, который хочет отнять у музея земельные владения и построить на них новую резиденцию.
ldes : Петр Дроздов, высокопоставленный чиновник из Москвы, приезжает в провинциальный музей полузабытого классика русской литературы по просьбе губернатора области, который хочет отнять у музея земельные владения и построить на них новую резиденцию. И поначалу Дроздов поддерживает это решение, но знакомство с Машей, молодым литературоведом, работающей в музее заместителем директора, меняет его взгляд не только на эту проблему, но и вообще на всю его жизнь
hdvd : 0
stik : 9
cnID : 494741
xid : Apple:vendor_id:2011-494741

Video
ID : 1
Format : AVC
Format/Info : Advanced Video Codec
Format profile : Baseline@L3.0
Format settings, CABAC : No
Format settings, ReFrames : 2 frames
Codec ID : avc1
Codec ID/Info : Advanced Video Coding
Duration : 1h 29mn
Bit rate : 1 523 Kbps
Maximum bit rate : 6 031 Kbps
Width : 640 pixels
Height : 362 pixels
Display aspect ratio : 2.35:1
Frame rate mode : Constant
Frame rate : 25.000 fps
Color space : YUV
Chroma subsampling : 4:2:0
Bit depth : 8 bits
Scan type : Progressive
Bits/(Pixel*Frame) : 0.263
Stream size : 978 MiB (89%)
Title : 2 Days _2011_
Writing library : x264 core 140 r2377+40 929f149 tMod [8-bit@4:2:0 X86_64]
Encoding settings : cabac=0 / ref=2 / deblock=1:-2:-2 / analyse=0x1:0x131 / me=umh / subme=7 / psy=1 / fade_compensate=0.10 / psy_rd=1.05:0.10 / mixed_ref=1 / me_range=32 / chroma_me=1 / trellis=2 / 8x8dct=0 / cqm=0 / deadzone=21,11 / fast_pskip=1 / chroma_qp_offset=-3 / threads=12 / lookahead_threads=2 / sliced_threads=0 / nr=0 / decimate=0 / interlaced=0 / bluray_compat=0 / constrained_intra=0 / fgo=0 / bframes=0 / weightp=0 / keyint=250 / keyint_min=25 / scenecut=40 / intra_refresh=0 / rc_lookahead=120 / rc=crf / mbtree=1 / crf=20.0000 / qcomp=0.60 / qpmin=0:0:0 / qpmax=69:69:69 / qpstep=4 / vbv_maxrate=5000 / vbv_bufsize=5000 / crf_max=0.0 / nal_hrd=none / filler=0 / ip_ratio=1.35 / aq=4:0.90 / aq-sensitivity=10.00 / aq-factor=1.00:1.00:1.00 / aq2=0 / aq3=0
Language : English
Encoded date : UTC 2014-02-12 14:24:51
Tagged date : UTC 2014-02-12 14:25:13
Matrix coefficients : BT.709

Audio
ID : 2
Format : AAC
Format/Info : Advanced Audio Codec
Format profile : LC
Codec ID : 40
Duration : 1h 29mn
Bit rate mode : Variable
Bit rate : 180 Kbps
Maximum bit rate : 238 Kbps
Channel(s) : 2 channels
Channel positions : Front: L R
Sampling rate : 48.0 KHz
Compression mode : Lossy
Stream size : 116 MiB (11%)
Title : Original
Language : Russian
Encoded date : UTC 2014-02-12 14:22:49
Tagged date : UTC 2014-02-12 14:25:13

Menu
ID : 3
Codec ID : text
Duration : 1h 29mn
Encoded date : UTC 2014-02-12 14:25:51
Tagged date : UTC 2014-02-12 14:25:51
Bit rate mode : CBR
Sort Name: Dva Dnya
XID: Apple:vendor_id:2011-494741
Content ID: 494741
Copyright: Central Partnership, Арт Пикчерс Студия
ScreenWriters: Анна Пармас, Авдотья Смирнова
Producers: Дмитрий Рудовский, Фёдор Бондарчук, Рубен Дишдишян
Director: Авдотья Смирнова
Cast: Фёдор Бондарчук, Ксения Раппопорт, Евгений Муравич, Ирина Розанова, Борис Каморзин, Геннадий Смирнов, Константин Шелестун, Мария Семенова, Андрей Смирнов, Ольга Дыховичная
Rating: ab 16 Jahren
Long Deion: Петр Дроздов, высокопоставленный чиновник из Москвы, приезжает в провинциальный музей полузабытого классика русской литературы по просьбе губернатора области, который хочет отнять у музея земельные владения и построить на них новую резиденцию. И поначалу Дроздов поддерживает это решение, но знакомство с Машей, молодым литературоведом, работающей в музее заместителем директора, меняет его взгляд не только на эту проблему, но и вообще на всю его жизнь
Deion: Петр Дроздов, высокопоставленный чиновник из Москвы, приезжает в провинциальный музей полузабытого классика русской литературы по просьбе губернатора области, который хочет отнять у музея земельные владения и построить на них новую резиденцию. И пона
Release Date: 2011-09-08T08:00:00Z
Genre: Drama
Artist: Авдотья Смирнова
Name: 2 дня
x264 [info]: frame I:801 Avg QP:17.98 size: 38788
x264 [info]: frame P:133795 Avg QP:21.24 size: 7430
x264 [info]: mb I I16..4: 22.7% 0.0% 77.3%
x264 [info]: mb P I16..4: 0.5% 0.0% 0.8% P16..4: 41.3% 15.0% 8.2% 1.8% 0.8% skip:31.7%
x264 [info]: coded y,uvDC,uvAC intra: 66.9% 73.7% 40.0% inter: 38.5% 31.1% 10.2%
x264 [info]: i16 v,h,dc,p: 39% 13% 10% 37%
x264 [info]: i4 v,h,dc,ddl,ddr,vr,hd,vl,hu: 28% 14% 13% 6% 8% 10% 6% 9% 5%
x264 [info]: i8c dc,h,v,p: 54% 14% 25% 7%
x264 [info]: ref P L0: 82.6% 17.4%
x264 [info]: kb/s:1523.41
[/url




   Похожие торренты   Торрент   Размер 
В этой теме нет новых непрочитанных сообщений. Красные огни / Red Lights (2011) HDRip | iPhone

33 | 2

1.41 ГБ

В этой теме нет новых непрочитанных сообщений. Иван Царевич и Серый Волк (2011) HDRip-AVC | iPhone

71 | 10

787.17 МБ

В этой теме нет новых непрочитанных сообщений. Шпион, выйди вон! / Tinker Tailor Soldier Spy (2011) HDRip-AVC | iPhone

12 | 2

707.52 МБ

В этой теме нет новых непрочитанных сообщений. Игры для Iphone / IPod Touch (2009-2010) Iphone

2 | 3

968.03 МБ

В этой теме нет новых непрочитанных сообщений. Swords and Sandals - 1, 2, 3, 4, IPhone, Crusader (2003-2010) PC, IPhone

412 | 43

114.67 МБ

В этой теме нет новых непрочитанных сообщений. Vector for iPhone [v1.0.3] (2012) iPhone, iPod, iPad

25 | 2

55.06 МБ

В этой теме нет новых непрочитанных сообщений. Сборник мультяшных игр для Iphone / Ipod Touch () Iphone

1 | 2

499.75 МБ




Вы не можете начинать темы
Вы не можете отвечать на сообщения
Вы не можете редактировать свои сообщения
Вы не можете удалять свои сообщения
Вы не можете добавлять вложения

Перейти:  
Для Мосгорсуда, Роскомнадзора и рекламодателей: mosgorsud-torrent[собачка]yandex.ru
 Вход
ppkBB3cker v.2 © 2008-2014 @ PPK
[ Time : 2.745s | 14 Queries | GZIP : On ]

Торрент трекер RUTOR.IN, Не можете зайти на rutor.org? Какой новый адрес рутор? Какое зеркало рутор? Не работает rutor.org и зеркала? Тогда наш торрент специально для вас. Rutor.in неофициальное зеркало rutor. В случае если у Вас заблокирован rutor или вдруг Вы не можете на него зайти, то Вы без труда сможете скачать бесплатно и без рекламы последние новинки кино, игр, сериалов и прочего у нас, на Rutor.in. Не нужно использовать прокси, чтобы зайти на рутор, достаточно воспользоваться нашим ресурсом. Все новые фильмы, игры, сериалы, книги и музыка за 2013 и 2014 годы через торрент бесплатно. Скачивайте фильмы в хорошем качестве, игры для пк, xbox, playstation без регистрации. У нас вы найдете новые Зарубежные сериалы и Русские сериалы 2013, 2014, 2015 годов. Оставайтесь с нами, качайте любимые фильмы, игры, сериалы, книги и музыку.