img image001 image001 image001 image001 image001 image001 image001 image001 image001 image001 image001 image001 image001 image001 image001

Planets Sun Sun Sun
Статистика раздачи
Автор: PriZraK | Размер: 1.46 ГБ | Добавлен: 15 фев 2014
Раздают: 431    Качают: 27
Скачать торрент
Скачать торрент
Описание торрента

СообщениеДобавлено: 15 фев 2014 




Информация о фильме
Название: Самый лучший фильм 2
Год выхода: 2009
Жанр: Комедия, пародия, приключения, фантастика
Режиссер: Олег Фомин
В ролях: Тимур Батрутдинов, Гарик Харламов, Дмитрий Хрусталёв, Олег Верещагин, Михаил Галустян, Дмитрий Нагиев, Александр Баширов, Сергей Лазарев, Сергей Зверев, Екатерина Конисевич, Фёдор Бондарчук

О фильме:
Четверо закадычных друзей - Моряк, Актёр, Мажор и Димати - после долгой разлуки встречаются в московском кафе отметить день рождения Мажора. На сей раз у них есть наличные, чтобы расплатиться с официанткой. И бегать по городу в поисках денег они будут совершенно по другой причине. Мажора похитили и требуют выкуп - миллион евро. Чем друзья будут расплачиваться с бандитами, кто найдёт новую любовь, а вместе с ней и приключения на все органы жизнедеятельности, кому придётся испытать все тяготы сложного пути шоу-бизнеса к популярности, каково рэпперу кавказской наружности гулять одному по безлюдным улицам?! Но все это впереди, а пока они молоды, красивы, полны сил, надежд и ждут приключений!



Страна: Comedy Club Production, ТНТ
Студия: Россия
Продолжительность: 01:21:36
Перевод: Не требуется

Файл
Кодек: XviD
Качество: DVDRip (Исходник: DVD-9)
Видео: XviD, 704x304 (2.35:1), 2176 Кбит/с, 25 кадр/с
Звук: Русский, Dolby АС3, 48000 Гц, 384 Кбит/с, 6 каналов (5.1)
Субтитры: Отсутствуют



Автор рипа - ivandubskoj

Общее
Полное имя : Samyy.luchshiy.fil'm.2.2009.DVDRip.avi
Формат : AVI
Формат/Информация : Audio Video Interleave
Размер файла : 1,46 Гбайт
Продолжительность : 1 ч. 21 м.
Общий поток : 2568 Кбит/сек
Название фильма : Самый лучший фильм (2009) DVDRip
Жанр : Комедия, пародия, приключения, фантастика
Дата записи : 12.02.2014
Программа кодирования : VirtualDubMod 1.5.10.3 (build 2550/release)
Библиотека кодирования : VirtualDubMod build 2550/release
Правообладатель : rip by ivandubskoj

Видео
Идентификатор : 0
Формат : MPEG-4 Visual
Профиль формата : Advanced Simple@L5
Параметр BVOP формата : 1
Параметр QPel формата : Нет
Параметр GMC формата : Без точки перехода
Параметр матрицы формата : Default (MPEG)
Идентификатор кодека : XVID
Идентификатор кодека/Подсказка : XviD
Продолжительность : 1 ч. 21 м.
Битрейт : 2176 Кбит/сек
Ширина : 704 пикселя
Высота : 304 пикселя
Соотношение сторон : 2,35:1
Частота кадров : 25,000 кадров/сек
Цветовое пространство : YUV
Субдискретизация насыщенности : 4:2:0
Битовая глубина : 8 бит
Тип развёртки : Прогрессивная
Метод сжатия : С потерями
Бит/(Пиксели*Кадры) : 0.407
Размер потока : 1,24 Гбайт (85%)
Библиотека кодирования : XviD 73

Аудио
Идентификатор : 1
Формат : AC-3
Формат/Информация : Audio Coding 3
Расширение режима : CM (complete main)
Параметр Endianness формата : Big
Идентификатор кодека : 2000
Продолжительность : 1 ч. 21 м.
Вид битрейта : Постоянный
Битрейт : 384 Кбит/сек
Каналы : 6 каналов
Расположение каналов : Front: L C R, Side: L R, LFE
Частота : 48,0 КГц
Битовая глубина : 16 бит
Метод сжатия : С потерями
Размер потока : 224 Мбайт (15%)
Выравнивание : Разделение по промежуткам
Продолжительность промежутка : 64 мс. (1,60 видеокадра)
Время предзагрузки промежутка : 500 мс.
Заголовок : Russian





   Похожие торренты   Торрент   Размер 
В этой теме нет новых непрочитанных сообщений. Самый лучший фильм 3-ДЭ (2011) BDRip от ivandubskoj

0 | 2

744.96 МБ

В этой теме нет новых непрочитанных сообщений. Фильм, фильм, фильм. Сборник мультфильмов (1968-1995) DVDRip

49 | 8

873.29 МБ

В этой теме нет новых непрочитанных сообщений. Самый лучший фильм 3-ДЭ (2011) BDRip от ivandubskoj | Лицензия

68 | 10

744.96 МБ

В этой теме нет новых непрочитанных сообщений. Самый лучший фильм 3-ДЭ (2011) Blu-ray Remux 1080p от ivandubskoj | Лицензия

107 | 10

19.18 ГБ

В этой теме нет новых непрочитанных сообщений. Фильм, фильм, фильм (1968) DVDRip от Lukavaya

37 | 10

370.36 МБ

В этой теме нет новых непрочитанных сообщений. Первая любовь (2009) DVDRip от ivandubskoj

57 | 16

1.46 ГБ

В этой теме нет новых непрочитанных сообщений. Мужчина в моей голове (2009) DVDRip от ivandubskoj

196 | 18

1.46 ГБ




Вы не можете начинать темы
Вы не можете отвечать на сообщения
Вы не можете редактировать свои сообщения
Вы не можете удалять свои сообщения
Вы не можете добавлять вложения

Перейти:  
Для Мосгорсуда, Роскомнадзора и рекламодателей: mosgorsud-torrent[собачка]yandex.ru
 Вход
ppkBB3cker v.2 © 2008-2014 @ PPK
[ Time : 0.043s | 16 Queries | GZIP : Off ]

Торрент трекер RUTOR.IN, Не можете зайти на rutor.org? Какой новый адрес рутор? Какое зеркало рутор? Не работает rutor.org и зеркала? Тогда наш торрент специально для вас. Rutor.in неофициальное зеркало rutor. В случае если у Вас заблокирован rutor или вдруг Вы не можете на него зайти, то Вы без труда сможете скачать бесплатно и без рекламы последние новинки кино, игр, сериалов и прочего у нас, на Rutor.in. Не нужно использовать прокси, чтобы зайти на рутор, достаточно воспользоваться нашим ресурсом. Все новые фильмы, игры, сериалы, книги и музыка за 2013 и 2014 годы через торрент бесплатно. Скачивайте фильмы в хорошем качестве, игры для пк, xbox, playstation без регистрации. У нас вы найдете новые Зарубежные сериалы и Русские сериалы 2013, 2014, 2015 годов. Оставайтесь с нами, качайте любимые фильмы, игры, сериалы, книги и музыку.
cron