img image001 image001 image001 image001 image001 image001 image001 image001 image001 image001 image001 image001 image001 image001 image001

Planets Sun Sun Sun
Статистика раздачи
Автор: PriZraK | Размер: 745.05 МБ | Добавлен: 15 фев 2014
Раздают: 45    Качают: 30
Скачать торрент
Скачать торрент
Описание торрента

СообщениеДобавлено: 15 фев 2014 


#77
Страна: CCCP
Производство: Мосфильм

Жанр: боевик, драма
Год выпуска: 1985
Продолжительность: 01:30:26

Перевод: не требуется
Оригинальная аудиодорожка: русский
Cубтитры: нет

Режиссер: Михаил Туманишвили

В ролях:
Михаил Ножкин (майор Шатохин), Александр Фатюшин (Саша Круглов), Сергей Насибов (Сергей Данилов), Нартай Бегалин (Паршин), Виталий Зикора (Джек Харрисон), Арнис Лицитис (майор Джек Хессальт), Олег Голубицкий (адмирал Репин), Валериан Виноградов (адмирал Юрьев), Сергей Волкош, Николай Лавров (сержант Эдди Гриффит), Юрий Колганов, Борис Огородников...


После многомесячного автономного плавания наш военный фрегат направляется на родную базу. Однако морякам приходится изменить курс и вмешаться в смертельно опасную игру, затеянную натовцами…





Исходник: DVD5 R5
Тип релиза: DVDRip
Контейнер: AVI

Видео: 688x400 (1,720:1), 25 fps, XviD ~ 1014 kbps avg, 0.147 bit/pixel
Аудио: 48 kHz, MP3 2.0, 128 kbps

Раздача от:
Общее
Полное имя : Odinochnoe.plavanie.1985.DVDRip-745_[New-team]_by_AVP_Studio.avi
Формат : AVI
Формат/Информация : Audio Video Interleave
Размер файла : 745 Мбайт
Продолжительность : 1 ч. 30 м.
Общий поток : 1152 Кбит/сек
Программа кодирования : VirtualDubModRus 1.5.10.2 (build 2542/release)
Библиотека кодирования : VirtualDubMod build 2542/release

Видео
Идентификатор : 0
Формат : MPEG-4 Visual
Профиль формата : Advanced Simple@L5
Параметр BVOP формата : 1
Параметр QPel формата : Нет
Параметр GMC формата : Без точки перехода
Параметр матрицы формата : Выборочная
Идентификатор кодека : XVID
Идентификатор кодека/Подсказка : XviD
Продолжительность : 1 ч. 30 м.
Битрейт : 1014 Кбит/сек
Ширина : 688 пикселей
Высота : 400 пикселей
Соотношение сторон : 1,720
Частота кадров : 25,000 кадров/сек
Цветовое пространство : YUV
Субдискретизация насыщенности : 4:2:0
Битовая глубина : 8 бит
Тип развёртки : Прогрессивная
Метод сжатия : С потерями
Бит/(Пиксели*Кадры) : 0.147
Размер потока : 656 Мбайт (88%)
Библиотека кодирования : XviD 73

Аудио
Идентификатор : 1
Формат : MPEG Audio
Версия формата : Version 1
Профиль формата : Layer 3
Идентификатор кодека : 55
Идентификатор кодека/Подсказка : MP3
Продолжительность : 1 ч. 30 м.
Вид битрейта : Постоянный
Битрейт : 128 Кбит/сек
Каналы : 2 канала
Частота : 48,0 КГц
Метод сжатия : С потерями
Размер потока : 82,8 Мбайт (11%)
Выравнивание : Соединение по промежуткам
Продолжительность промежутка : 40 мс. (1,00 видеокадр)
Время предзагрузки промежутка : 504 мс.
Библиотека кодирования : LAME3.99r
Настройки программы : -m s -V 4 -q 2 -lowpass 17 -b 128



• Занимает по посещаемости 86-е место среди отечественных фильмов за всю историю советского кинопроката.
• Многие эпизоды фильма были сняты в окрестностях посёлка Новый Свет (Царская бухта, мыс Капчик и т. д.).
• «Американские» мятежники вооружены немецкими винтовками G-3, гранатометом РПГ-2, чешскими пулеметами «ZB vz. 26», а также переделанными в подобие М-16 немецкими автоматами STG-44. Командир группы охраны ракетной базы вооружен пистолетом-пулемётом Sa vz. 23 чехословацкого производства.
• «Роли» американской подводной лодки и ракетных катеров «играют» дизельная подводная лодка проект 641 и ракетные катера проекта 205. В качестве советского корабля показан большой противолодочный корабль проекта 1134Б «Очаков».
• Полевое обмундирование советских морских пехотинцев в «экспериментальном варианте» выполнено из ткани КЗС — самого распространенного материала для пошива маскировочной одежды в ВС СССР до середины 80-х годов ХХ века. Наиболее были распространены маскировочные комбинезоны из ткани такого типа.
• В начале фильма, когда американские чиновники, военные и промышленники обсуждают план провокации, упоминаются стратегический бомбардировщик B-1, который был принят на вооружение ВВС США и запущен в серию в 1985 году, а также самолет-невидимка «Стелс».
• «Одиночное плавание» — единственный советский фильм, в котором происходит военное столкновение между советскими и американскими силами.
• В начале фильма американский корреспондент Оулдер представляется как Билл, в конце — как Фил.



   Похожие торренты   Торрент   Размер 
В этой теме нет новых непрочитанных сообщений. Одиночное плавание (1985) DVDRip-AVC от New-Team

256 | 21

1.46 ГБ

В этой теме нет новых непрочитанных сообщений. Одиночное плавание (1985) DVDRip

122 | 22

1.46 ГБ

В этой теме нет новых непрочитанных сообщений. Одиночное плавание (1985) DVDRip-AVC от ExKinoRay

290 | 23

1.64 ГБ

В этой теме нет новых непрочитанных сообщений. Одиночное плавание (1985) DVDRip-AVC от Тorrent-Хzona

29 | 4

1.31 ГБ

В этой теме нет новых непрочитанных сообщений. Одиночное плавание / Im Alleingang / Solo Voyage (1985) DVD9

0 | 3

7.15 ГБ

В этой теме нет новых непрочитанных сообщений. Черная стрела (1985) DVDRip-AVC от New-Team

67 | 14

1.46 ГБ

В этой теме нет новых непрочитанных сообщений. Черная стрела (1985) DVDRip от New-Team

21 | 6

744.13 МБ




Вы не можете начинать темы
Вы не можете отвечать на сообщения
Вы не можете редактировать свои сообщения
Вы не можете удалять свои сообщения
Вы не можете добавлять вложения

Перейти:  
Для Мосгорсуда, Роскомнадзора и рекламодателей: mosgorsud-torrent[собачка]yandex.ru
 Вход
ppkBB3cker v.2 © 2008-2014 @ PPK
[ Time : 0.021s | 16 Queries | GZIP : On ]

Торрент трекер RUTOR.IN, Не можете зайти на rutor.org? Какой новый адрес рутор? Какое зеркало рутор? Не работает rutor.org и зеркала? Тогда наш торрент специально для вас. Rutor.in неофициальное зеркало rutor. В случае если у Вас заблокирован rutor или вдруг Вы не можете на него зайти, то Вы без труда сможете скачать бесплатно и без рекламы последние новинки кино, игр, сериалов и прочего у нас, на Rutor.in. Не нужно использовать прокси, чтобы зайти на рутор, достаточно воспользоваться нашим ресурсом. Все новые фильмы, игры, сериалы, книги и музыка за 2013 и 2014 годы через торрент бесплатно. Скачивайте фильмы в хорошем качестве, игры для пк, xbox, playstation без регистрации. У нас вы найдете новые Зарубежные сериалы и Русские сериалы 2013, 2014, 2015 годов. Оставайтесь с нами, качайте любимые фильмы, игры, сериалы, книги и музыку.