img image001 image001 image001 image001 image001 image001 image001 image001 image001 image001 image001 image001 image001 image001 image001

Planets Sun Sun Sun
Статистика раздачи
Автор: PriZraK | Размер: 1.37 ГБ | Добавлен: 15 фев 2014
Раздают: 749    Качают: 45
Скачать торрент
Скачать торрент
Описание торрента

СообщениеДобавлено: 15 фев 2014 


#77

«Победы, которые у нас уже есть»

Наименование: Чемпионы
Категория: спорт, драма
Год выпуска: 2014
Произведено: Россия / Enjoy Movies, Renovatio ent.
Перевод: Оригинал
Продолжительность: 01:34:07

Режиссер: Алексей Вакулов, Артем Аксененко, Дмитрий Дюжев

В главных ролях: Светлана Ходченкова, Алексей Чадов, Марк Богатырёв, Андрей Смоляков, Константин Крюков, Татьяна Арнтгольц, Таисия Вилкова, Александр Молочников, Максим Виторган, Ангелина Добророднова, Ольга Тумайкина, Андрей Федорцов, Екатерина Климова, Михаил Горевой, Игорь Верник, Дмитрий Губерниев, Виктор Гусев (III), Семен Трескунов, Юлия Гришина, Андрис Лиелайс, Анатолий Лобоцкий, Александр Сазонов, Андрей Лебедев, Тимур Ефременков, Егор Клинаев, Виталий Абдулов, Евгений Шириков...


В центре сюжета фильма история пути к чемпионским титулам нескольких спортсменов. Пять реальных историй олимпийских медалей России. Пять историй, где переплетаются любовь, предательство, дружба. Это истории настоящих побед. И за каждой победой стоит уважение, труд и вера в себя, в близких и в свою страну.



Качество: DVDRip (AVC)
Видео: MPEG-4 AVC, 1627 Кбит/с, 720x552@1024x552
Аудио: AC3, 6 ch, 448 Кбит/с

Автор: bog3417



Формат : Matroska
Версия формата : Version 2
Размер файла : 1,37 Гбайт
Продолжительность : 1 ч. 34 м.
Общий поток : 2077 Кбит/сек
Название фильма : by bog3417
Дата кодирования : UTC 2014-02-14 03:21:53
Программа кодирования : mkvmerge v6.7.0 ('Back to the Ground') 32bit built on Jan 8 2014 15:03:17
Библиотека кодирования : libebml v1.3.0 + libmatroska v1.4.1
Видео
Идентификатор : 1
Формат : AVC
Формат/Информация : Advanced Video Codec
Профиль формата : High@L4.1
Параметр CABAC формата : Да
Параметр ReFrames формата : 9 кадров
Идентификатор кодека : V_MPEG4/ISO/AVC
Продолжительность : 1 ч. 34 м.
Битрейт : 1627 Кбит/сек
Ширина : 720 пикселей
Высота : 552 пикселя
Соотношение сторон : 1,85:1
Режим частоты кадров : Постоянный
Частота кадров : 25,000 кадров/сек
Цветовое пространство : YUV
Субдискретизация насыщенности : 4:2:0
Битовая глубина : 8 бит
Тип развёртки : Прогрессивная
Бит/(Пиксели*Кадры) : 0.164
Размер потока : 1,04 Гбайт (76%)
Заголовок : by bog3417
Библиотека кодирования : x264 core 138 r2358 9e941d1
Настройки программы : cabac=1 / ref=9 / deblock=1:-3:-3 / analyse=0x3:0x133 / me=umh / subme=11 / psy=1 / psy_rd=1.00:0.00 / mixed_ref=1 / me_range=32 / chroma_me=1 / trellis=2 / 8x8dct=1 / cqm=0 / deadzone=21,11 / fast_pskip=0 / chroma_qp_offset=-2 / threads=8 / lookahead_threads=2 / sliced_threads=0 / nr=0 / decimate=0 / interlaced=0 / bluray_compat=0 / stitchable=1 / constrained_intra=0 / bframes=10 / b_pyramid=2 / b_adapt=2 / b_bias=0 / direct=3 / weightb=1 / open_gop=0 / weightp=2 / keyint=250 / keyint_min=25 / scenecut=40 / intra_refresh=0 / rc_lookahead=40 / rc=2pass / mbtree=1 / bitrate=1627 / ratetol=1.0 / qcomp=0.60 / qpmin=10 / qpmax=51 / qpstep=4 / cplxblur=20.0 / qblur=0.5 / ip_ratio=1.40 / aq=1:1.00
Язык : English
Default : Да
Forced : Нет
Аудио
Идентификатор : 2
Формат : AC-3
Формат/Информация : Audio Coding 3
Расширение режима : CM (complete main)
Параметр Endianness формата : Big
Идентификатор кодека : A_AC3
Продолжительность : 1 ч. 34 м.
Вид битрейта : Постоянный
Битрейт : 448 Кбит/сек
Каналы : 6 каналов
Расположение каналов : Front: L C R, Side: L R, LFE
Частота : 48,0 КГц
Битовая глубина : 16 бит
Метод сжатия : С потерями
Размер потока : 302 Мбайт (22%)
Default : Да
Forced : Нет
Меню
00:00:00.000 : en:Chapter 01
00:10:36.360 : en:Chapter 02
00:16:32.640 : en:Chapter 03
00:24:56.720 : en:Chapter 04
00:31:49.720 : en:Chapter 05
00:39:59.600 : en:Chapter 06
00:50:38.240 : en:Chapter 07
00:55:49.760 : en:Chapter 08
01:04:12.520 : en:Chapter 09
01:14:18.320 : en:Chapter 10
01:19:20.280 : en:Chapter 11
01:25:51.600 : en:Chapter 12



   Похожие торренты   Торрент   Размер 
В этой теме нет новых непрочитанных сообщений. Чемпионы (2014) DVDRip | Лицензия

730 | 80

700.59 МБ

В этой теме нет новых непрочитанных сообщений. Чемпионы (2014) DVDRip | Лицензия

6966 | 611

1.37 ГБ

В этой теме нет новых непрочитанных сообщений. Чемпионы (2014) DVDRip от Scarabey | Лицензия

178 | 61

745.6 МБ

В этой теме нет новых непрочитанных сообщений. Чемпионы (2014) DVDRip от Scarabey | Лицензия

953 | 298

1.45 ГБ

В этой теме нет новых непрочитанных сообщений. Чемпионы (2014) DVDRip от Sanjar & NeoJet | КПК | Лицензия

26 | 7

282.89 МБ

В этой теме нет новых непрочитанных сообщений. Чемпионы (2014) DVD9 | Лицензия

297 | 52

5.04 ГБ

В этой теме нет новых непрочитанных сообщений. Чемпионы (2014) HDRip | Лицензия

462 | 61

1.46 ГБ




Вы не можете начинать темы
Вы не можете отвечать на сообщения
Вы не можете редактировать свои сообщения
Вы не можете удалять свои сообщения
Вы не можете добавлять вложения

Перейти:  
Для Мосгорсуда, Роскомнадзора и рекламодателей: mosgorsud-torrent[собачка]yandex.ru
 Вход
ppkBB3cker v.2 © 2008-2014 @ PPK
[ Time : 0.019s | 16 Queries | GZIP : On ]

Торрент трекер RUTOR.IN, Не можете зайти на rutor.org? Какой новый адрес рутор? Какое зеркало рутор? Не работает rutor.org и зеркала? Тогда наш торрент специально для вас. Rutor.in неофициальное зеркало rutor. В случае если у Вас заблокирован rutor или вдруг Вы не можете на него зайти, то Вы без труда сможете скачать бесплатно и без рекламы последние новинки кино, игр, сериалов и прочего у нас, на Rutor.in. Не нужно использовать прокси, чтобы зайти на рутор, достаточно воспользоваться нашим ресурсом. Все новые фильмы, игры, сериалы, книги и музыка за 2013 и 2014 годы через торрент бесплатно. Скачивайте фильмы в хорошем качестве, игры для пк, xbox, playstation без регистрации. У нас вы найдете новые Зарубежные сериалы и Русские сериалы 2013, 2014, 2015 годов. Оставайтесь с нами, качайте любимые фильмы, игры, сериалы, книги и музыку.