img image001 image001 image001 image001 image001 image001 image001 image001 image001 image001 image001 image001 image001 image001 image001

Planets Sun Sun Sun
Статистика раздачи
Автор: PriZraK | Размер: 11.22 ГБ | Добавлен: 15 фев 2014
Раздают: 135    Качают: 165
Скачать торрент
Скачать торрент
Описание торрента

СообщениеДобавлено: 15 фев 2014 






Любовь в большом городе: Трилогия









Год выпуска: 2009-2013
Выпущено: Россия, Украина, First Breath Films, Kvartal 95 Studio, Leopolis
Жанр: Комедия
Продолжительность: 3~ 01:27:53
Перевод:НЕ ТРЕБУЕТСЯ
Субтитры : отсутствуют








Режиссер: Марюс Вайсберг,Марюс Вайсберг,Дэвид Додсон




В ролях: Алексей Чадов, Владимир Зеленский, Светлана Ходченкова, Вера Брежнева, Вилле Хаапасало, Анастасия Задорожная, Филипп Киркоров, Шэрон Стоун, Игорь Жижикин, Екатерина Климова




Любовь в большом городе:Действие фильма происходит в одном из самых романтичных мегаполисов мира — Нью-Йорке. Три друга Артем, Игорь и Оле, настоящий "русский" финн, в народе "Сауна" работают на чужбине, а в свободное от работы время отрываются, "как взрослые": ходят в сауну, в стриптиз-бары, крутят короткие и ни к чему не обязывающие романы. Секс для них давно превратился в забег на короткие дистанции, соблазненные женщины — в трофеи, а триумфальные победы — главная тема обсуждения во время каждого мальчишника. Но однажды случай вмешивается в их устоявшуюся, беспечную, разгильдяйскую жизнь. На очередной вечеринке в одном из клубов человек странного вида поднимает бокал и произносит тост. Пройдет совсем немного времени, и все трое обнаружат пренеприятнейшую перемену — они больше не могут заниматься сексом. Как вернуть мужскую силу? Корень женьшеня? Виагра? Тайский массаж? Консультации сексопатолога? Ничто не спасает. За что? Почему? И почему так рано? И почему именно мы? С этими вопросами наши герои в отчаянии бегают по специалистам. В конце концов, они находят того самого человека с вечеринки, и выясняют, что тот, применив свои мистические способности, "закодировал" их от беспорядочных связей. Их спасет только одно средство. Любовь. И секс будет. Но только с любимой женщиной. Осталось дело за малым — найти ее.
Любовь в большом городе 2:Игорь приглашает Сауну и Артема с возлюбленными на ранчо к отцу. Ребята смогут отдохнуть, а Игорь наконец-то познакомит Настю с будущим тестем. Друзья пакуют чемоданы. В самолете они знакомятся с парочкой американцев, которые рассказывают им о неком монастыре на окраине города, где будут жить наши герои, святом месте, согласно древнему преданию помогающем в борьбе с бесплодием. Игорь, Артем и Сауна единодушны — к отцовству они еще не готовы. Но на экскурсию в монастырь все-таки едут. Несмотря на предупреждение монаха, друзья прикасаются к «идолу», и теперь они обречены при первом же половом акте зачать ребенка. Они озадачены — стоит верить предрассудкам или нет? На всякий случай, они решают временно воздержаться от секса. Девушки, узнав о причине такого странного поведения любимых, обижаются и уезжают. Оставшись одни, ребята решают оттянуться по полной, но тут на их пути снова появляется Святой Валентин. Он возмущен: как они могли не воспользоваться таким благословением? Рождается новое заклятие. Тот из троих кто окажется первым в постели с женщиной — станет отцом. Остальные смогут иметь детей лишь через 10 лет. О таком повороте событий никто и помыслить не мог. Все трое внезапно осознают, что готовы к отцовству… Приключения начинаются.
Любовь в большом городе 3:В жизни каждого отца, рано или поздно наступает момент, когда жена улетает на заслуженный отдых, а он остается один на один с собственным ребенком. Казалось бы — ничего сложного! Также подумали Игорь, Артем и Сауна, даже не подозревая, какой «водопад» приключений накроет их с головой. Измученные «прелестями» отцовства, парни встречают своего старого приятеля Святого Валентина. Снимая стресс за бутылочкой виски, ребята в шутку мечтают о том, чтобы их дети поскорее стали взрослыми. А на утро, шокированные папаши понимают — их мечта сбылась и теперь они на собственной шкуре поймут, что значит поговорка: Большие дети — большие проблемы…





Любовь в большом городе:
Качество : BDRip-AVC 720р
Формат: MPEG-4
Видео кодек: H264
Видео: 5697Кбит/сек,1280х720(16.9),в 25.000кадр/сек,AVC(Baseline@L3.1)(1Ref Frames)
Аудио кодек: AAC
Аудио Russian Dolby Digital 5.1:455Кбит/сек,48.0КГц,6каналов,AAC,(Version4)(LC)
Любовь в большом городе2:
Качество : BDRip-AVC 720р
Формат: MPEG-4
Видео кодек: H264
Видео: 5724Кбит/сек,1280х560(16.9),в 25.000кадр/сек,AVC(Baseline@L3.1)(1Ref Frames)
Аудио кодек: AAC
Аудио Russian Dolby Digital 5.1:496Кбит/сек,48.0КГц,6каналов,AAC,(Version4)(LC)
Любовь в большом городе3:
Качество : WEB-DLRip-AVC 720р
Формат: MPEG-4
Видео кодек: H264
Видео: 5709Кбит/сек,1280х720(16.9),в 25.000кадр/сек,AVC(Baseline@L3.1)(1Ref Frames)
Аудио кодек: AAC
Аудио Russian Dolby Digital 5.1:481Кбит/сек,48.0КГц,6каналов,AAC,(Version4)(LC)






Звуковая дорожка сделана путем наложения чистого голоса озвучивателей на центральный канал оригинальной дорожки. Качество идентично звуковой дорожке.






General
Полное имя : D:К О М Е Д И ИЛюбовь в большом городеLubov.V.Bolshom.Gorode_.2009_-_2013_DD5.1_x264_Nikolai.Baranov_ВDRip-AVC_(720p)Lubov.V.Bolshom.Gorode_.2009_DD5.1_x264_Nikolai.Baranov_ВDRip-AVC_(720p).mp4
Формат : MPEG-4
Профиль формата : Base Media
Идентификатор кодека : isom
Размер файла : 3.78 GiB
Продолжительность : 1h 27mn
Режим общего битрейта : Variable
Общий поток : 6 157 Kbps
Название фильма : Любовь РІ большом РіРѕСЂРѕРґРµ_RollHD
Дата кодирования : UTC 2014-02-09 20:43:28
Дата пометки : UTC 2014-02-09 20:43:28
Программа кодирования : Lavf51.12.1
Video
Идентификатор : 1
Формат : AVC
Формат/Информация : Advanced Video Codec
Профиль формата : Baseline@L3.1
Параметр CABAC формата : No
Параметр ReFrames формата : 1 frame
Параметр GOP формата : M=1, N=12
Идентификатор кодека : avc1
Идентификатор кодека/Информация : Advanced Video Coding
Продолжительность : 1h 27mn
Вид битрейта : Variable
Битрейт : 5 697 Kbps
Максимальный битрейт : 8 250 Kbps
Ширина : 1 280 pixels
Высота : 720 pixels
Соотношение сторон : 16:9
Режим частоты кадров : Constant
Частота кадров : 25.000 fps
Частота кадров в оригинале : 24.000 fps
Цветовое пространство : YUV
Субдискретизация насыщенности : 4:2:0
Битовая глубина : 8 bits
Тип развёртки : Progressive
Бит/(Пиксели*Кадры) : 0.247
Размер потока : 3.50 GiB (93%)
Язык : English
Дата кодирования : UTC 2014-02-09 20:43:28
Дата пометки : UTC 2014-02-09 20:43:28
Audio
Идентификатор : 2
Формат : AAC
Формат/Информация : Advanced Audio Codec
Профиль формата : LC
Идентификатор кодека : 40
Продолжительность : 1h 27mn
Вид битрейта : Variable
Битрейт : 455 Kbps
Каналы : 6 channels
Расположение каналов : Front: L C R, Side: L R, LFE
Частота : 48.0 KHz
Метод сжатия : Lossy
Размер потока : 286 MiB (7%)
Язык : Russian
Дата кодирования : UTC 2014-02-09 20:43:28
Дата пометки : UTC 2014-02-09 20:43:28






General
Полное имя : D:К О М Е Д И ИЛюбовь в большом городеLubov.V.Bolshom.Gorode_.2009_-_2013_DD5.1_x264_Nikolai.Baranov_ВDRip-AVC_(720p)Lubov.V.Bolshom.Gorode.2_2010_DD5.1_x264_Nikolai.Baranov_ВDRip-AVC_(720p).mp4
Формат : MPEG-4
Профиль формата : Base Media
Идентификатор кодека : isom
Размер файла : 4.04 GiB
Продолжительность : 1h 32mn
Режим общего битрейта : Variable
Общий поток : 6 227 Kbps
Название фильма : -=Carbon=-
Дата кодирования : UTC 2014-02-10 07:45:39
Дата пометки : UTC 2014-02-10 07:45:39
Программа кодирования : Lavf51.12.1
Video
Идентификатор : 1
Формат : AVC
Формат/Информация : Advanced Video Codec
Профиль формата : Baseline@L3.1
Параметр CABAC формата : No
Параметр ReFrames формата : 1 frame
Параметр GOP формата : M=1, N=12
Идентификатор кодека : avc1
Идентификатор кодека/Информация : Advanced Video Coding
Продолжительность : 1h 32mn
Вид битрейта : Variable
Битрейт : 5 724 Kbps
Максимальный битрейт : 8 250 Kbps
Ширина : 1 280 pixels
Высота : 720 pixels
Соотношение сторон : 16:9
Режим частоты кадров : Constant
Частота кадров : 25.000 fps
Частота кадров в оригинале : 24.000 fps
Цветовое пространство : YUV
Субдискретизация насыщенности : 4:2:0
Битовая глубина : 8 bits
Тип развёртки : Progressive
Бит/(Пиксели*Кадры) : 0.248
Размер потока : 3.72 GiB (92%)
Язык : English
Дата кодирования : UTC 2014-02-10 07:45:39
Дата пометки : UTC 2014-02-10 07:45:39
Audio
Идентификатор : 2
Формат : AAC
Формат/Информация : Advanced Audio Codec
Профиль формата : LC
Идентификатор кодека : 40
Продолжительность : 1h 32mn
Вид битрейта : Variable
Битрейт : 496 Kbps
Каналы : 6 channels
Расположение каналов : Front: L C R, Side: L R, LFE
Частота : 48.0 KHz
Метод сжатия : Lossy
Размер потока : 330 MiB (8%)
Язык : Russian
Дата кодирования : UTC 2014-02-10 07:45:39
Дата пометки : UTC 2014-02-10 07:45:39






General
Полное имя : D:К О М Е Д И ИЛюбовь в большом городеLubov.V.Bolshom.Gorode_.2009_-_2013_DD5.1_x264_Nikolai.Baranov_ВDRip-AVC_(720p)Lubov.V.Bolshom.Gorode.3_2013_DD5.1_x264_Nikolai.Baranov_WEB-DLRip-AVC_(720p).mp4
Формат : MPEG-4
Профиль формата : Base Media
Идентификатор кодека : isom
Размер файла : 3.40 GiB
Продолжительность : 1h 18mn
Режим общего битрейта : Variable
Общий поток : 6 194 Kbps
Название фильма : Спираль - 1С…05 - Белая комната
Дата кодирования : UTC 2014-02-09 19:09:48
Дата пометки : UTC 2014-02-09 19:09:48
Программа кодирования : Lavf51.12.1
Video
Идентификатор : 1
Формат : AVC
Формат/Информация : Advanced Video Codec
Профиль формата : Baseline@L3.1
Параметр CABAC формата : No
Параметр ReFrames формата : 1 frame
Параметр GOP формата : M=1, N=12
Идентификатор кодека : avc1
Идентификатор кодека/Информация : Advanced Video Coding
Продолжительность : 1h 18mn
Вид битрейта : Variable
Битрейт : 5 709 Kbps
Максимальный битрейт : 8 250 Kbps
Ширина : 1 280 pixels
Высота : 720 pixels
Соотношение сторон : 16:9
Режим частоты кадров : Constant
Частота кадров : 25.000 fps
Частота кадров в оригинале : 24.000 fps
Цветовое пространство : YUV
Субдискретизация насыщенности : 4:2:0
Битовая глубина : 8 bits
Тип развёртки : Progressive
Бит/(Пиксели*Кадры) : 0.248
Размер потока : 3.14 GiB (92%)
Язык : English
Дата кодирования : UTC 2014-02-09 19:09:48
Дата пометки : UTC 2014-02-09 19:09:48
Audio
Идентификатор : 2
Формат : AAC
Формат/Информация : Advanced Audio Codec
Профиль формата : LC
Идентификатор кодека : 40
Продолжительность : 1h 18mn
Вид битрейта : Variable
Битрейт : 481 Kbps
Каналы : 6 channels
Расположение каналов : Front: L C R, Side: L R, LFE
Частота : 48.0 KHz
Метод сжатия : Lossy
Размер потока : 270 MiB (8%)
Язык : Russian
Дата кодирования : UTC 2014-02-09 19:09:48
Дата пометки : UTC 2014-02-09 19:09:48












Любовь в большом городе




Любовь в большом городе 2




]Любовь в большом городе 3









ПРИЯТНОГО ПРОСМОТРА .




Релиз от: Nikolai.Baranov





















   Похожие торренты   Торрент   Размер 
В этой теме нет новых непрочитанных сообщений. Любовь в большом городе 3 (2013) WEB-DLRip от Scarabey

837 | 67

1.45 ГБ

В этой теме нет новых непрочитанных сообщений. Любовь в большом городе 3 (2013) WEB-DLRip от ivandubskoj

164 | 10

1.43 ГБ

В этой теме нет новых непрочитанных сообщений. Любовь в большом городе (2009) BDRip от HQ-VIDEO

637 | 43

1.46 ГБ

В этой теме нет новых непрочитанных сообщений. Любовь в большом городе (2009) BDRip | Лицензия

336 | 19

741.3 МБ

В этой теме нет новых непрочитанных сообщений. Любовь в большом городе (2009) BDRip 1080p от FreeHD

35 | 10

7.96 ГБ

В этой теме нет новых непрочитанных сообщений. Любовь в большом городе (2009) BDRip 720p от FreeHD

43 | 4

4.37 ГБ

В этой теме нет новых непрочитанных сообщений. Любовь в большом городе (2009) DVDRip

129 | 16

699.81 МБ




Вы не можете начинать темы
Вы не можете отвечать на сообщения
Вы не можете редактировать свои сообщения
Вы не можете удалять свои сообщения
Вы не можете добавлять вложения

Перейти:  
Для Мосгорсуда, Роскомнадзора и рекламодателей: mosgorsud-torrent[собачка]yandex.ru
 Вход
ppkBB3cker v.2 © 2008-2014 @ PPK
[ Time : 1.302s | 16 Queries | GZIP : Off ]
CGP output time : 1.268s | 5 Queries | GZIP : Off

Торрент трекер RUTOR.IN, Не можете зайти на rutor.org? Какой новый адрес рутор? Какое зеркало рутор? Не работает rutor.org и зеркала? Тогда наш торрент специально для вас. Rutor.in неофициальное зеркало rutor. В случае если у Вас заблокирован rutor или вдруг Вы не можете на него зайти, то Вы без труда сможете скачать бесплатно и без рекламы последние новинки кино, игр, сериалов и прочего у нас, на Rutor.in. Не нужно использовать прокси, чтобы зайти на рутор, достаточно воспользоваться нашим ресурсом. Все новые фильмы, игры, сериалы, книги и музыка за 2013 и 2014 годы через торрент бесплатно. Скачивайте фильмы в хорошем качестве, игры для пк, xbox, playstation без регистрации. У нас вы найдете новые Зарубежные сериалы и Русские сериалы 2013, 2014, 2015 годов. Оставайтесь с нами, качайте любимые фильмы, игры, сериалы, книги и музыку.