img image001 image001 image001 image001 image001 image001 image001 image001 image001 image001 image001 image001 image001 image001 image001

Planets Sun Sun Sun
Статистика раздачи
Автор: Nickolas3434 | Размер: 4.36 ГБ | Добавлен: 17 фев 2014
Раздают: 90    Качают: 19
Скачать торрент
Скачать торрент
Описание торрента

СообщениеДобавлено: 17 фев 2014 

«Победы, которые у нас уже есть»


Год выпуска: 2014
Производство: Россия / Enjoy Movies, Renovatio ent.
Жанр: Спорт, драма
Перевод: Не требуется (Русский язык)
Субтитры: Отсутствуют

Режиссер: Алексей Вакулов, Артем Аксененко, Дмитрий Дюжев
Актеры: Андрей Смоляков, Марк Богатырев, Андрей Федорцов, Михаил Горевой, Дмитрий Губерниев, Таисия Вилкова, Александр Молочников, Максим Виторган, Светлана Ходченкова, Ольга Тумайкина, Алексей Чадов, Игорь Верник, Константин Крюков, Татьяна Арнтгольц, Екатерина Климова, Виктор Гусев

Описание фильма:
Пять реальных историй больших побед российских спортсменов. И за каждой победой стоят человеческие истории, в которых переплетаются любовь, предательство, дружба, уважение, труд и вера. Вера в себя, вера в победу.




Дата мировой премьеры: 23 января 2014
Дата российской премьеры: 23 января 2014, «Каропрокат»
Дата выхода DVD/Blu-Ray релиза: 18 февраля 2014, «Lizard Cinema Trade»


Продолжительность: 01:34:07
Качество видео: DVD5

Видео: MPEG-2, 720x576@1024x576 (PAL 16:9), ~5856 Кбит/сек
Аудио: AC3 5.1, 448 Кбит/сек [Русский]
Title: Локальный диск
Size: 4.36 Gb ( 4 571 506 KBytes ) - DVD-5
Enabled regions: 1, 2, 3, 4, 5, 6, 7, 8

VTS_01 :
Play Length:
Video: PAL 4:3 (720x576) VBR
Audio:
Russian (Dolby AC3, 6 ch)
English (Dolby AC3, 6 ch)
English (Dolby AC3, 6 ch)

VTS_02 :
Play Length: 01:34:07
Video: PAL 16:9 (720x576) VBR, Auto Pan&Scan, Auto Letterboxed
Audio:
Russian (Dolby AC3, 6 ch)

Menu Video:
NTSC 4:3 (720x480) VBR
Auto Pan&Scan, Auto Letterboxed
Menu English Language Unit :
Root Menu
Chapter (PTT) Menu
Audio Menu
Общее
Полное имя : D:ВидеоЧемпионы (2014) DVD5VIDEO_TSVTS_02_2.VOB
Формат : MPEG-PS
Размер файла : 1024 Мбайт
Продолжительность : 22 м.
Режим общего битрейта : Переменный
Общий поток : 6432 Кбит/сек

Видео
Идентификатор : 224 (0xE0)
Формат : MPEG Video
Версия формата : Version 2
Профиль формата : Main@Main
Параметр BVOP формата : Да
Параметр матрицы формата : Выборочная
Параметр GOP формата : Variable
Продолжительность : 22 м.
Вид битрейта : Переменный
Битрейт : 5856 Кбит/сек
Максимальный битрейт : 8500 Кбит/сек
Ширина : 720 пикселей
Высота : 576 пикселей
Соотношение сторон : 16:9
Частота кадров : 25,000 кадров/сек
Стандарт вещания : PAL
Цветовое пространство : YUV
Субдискретизация насыщенности : 4:2:0
Битовая глубина : 8 бит
Тип развёртки : Прогрессивная
Метод сжатия : С потерями
Бит/(Пиксели*Кадры) : 0.565
Временной код первого кадра : 01:22:26:15
Оригинал временного кода : Group of pictures header
Размер потока : 932 Мбайт (91%)

Аудио
Идентификатор : 189 (0xBD)-128 (0x80)
Формат : AC-3
Формат/Информация : Audio Coding 3
Расширение режима : CM (complete main)
Параметр Endianness формата : Big
Режим смешивания : DVD-Video
Продолжительность : 22 м.
Вид битрейта : Постоянный
Битрейт : 448 Кбит/сек
Каналы : 6 каналов
Расположение каналов : Front: L C R, Side: L R, LFE
Частота : 48,0 КГц
Битовая глубина : 16 бит
Метод сжатия : С потерями
Задержка видео : -264 мс.
Размер потока : 71,3 Мбайт (7%)

Меню

Видео не сжималось!
Удалены: реклама, предупреждения и заставки, аудиодорожка DTS.
Меню: частично анимированное, недействующие кнопки затерты и закрыты.
Обработка: DVD ReMake Pro + Работа с меню (Adobe PhotoShop и MuxMan).


Скриншоты:

За DVD5 спасибо большое Lelya_K ®
Lelya_K ®



   Похожие торренты   Торрент   Размер 
В этой теме нет новых непрочитанных сообщений. Чемпионы (2014) WEB-DLRip-AVC

648 | 40

1.41 ГБ

В этой теме нет новых непрочитанных сообщений. Чемпионы (2014) DVDRip-AVC

117 | 18

744.67 МБ

В этой теме нет новых непрочитанных сообщений. Чемпионы (2014) WEB-DL 1080p

1097 | 106

3.04 ГБ

В этой теме нет новых непрочитанных сообщений. Чемпионы (2014) WEB-DLRip

202 | 12

1.45 ГБ

В этой теме нет новых непрочитанных сообщений. Чемпионы (2014) BDRip от HQ-ViDEO

12 | 3

1.45 ГБ

В этой теме нет новых непрочитанных сообщений. Чемпионы (2014) BDRip-AVC от ExKinoRay

52 | 13

2.05 ГБ

В этой теме нет новых непрочитанных сообщений. Чемпионы (2014) HDRip | Лицензия

462 | 61

1.46 ГБ




Вы не можете начинать темы
Вы не можете отвечать на сообщения
Вы не можете редактировать свои сообщения
Вы не можете удалять свои сообщения
Вы не можете добавлять вложения

Перейти:  
Для Мосгорсуда, Роскомнадзора и рекламодателей: mosgorsud-torrent[собачка]yandex.ru
 Вход
ppkBB3cker v.2 © 2008-2014 @ PPK
[ Time : 0.027s | 14 Queries | GZIP : Off ]

Торрент трекер RUTOR.IN, Не можете зайти на rutor.org? Какой новый адрес рутор? Какое зеркало рутор? Не работает rutor.org и зеркала? Тогда наш торрент специально для вас. Rutor.in неофициальное зеркало rutor. В случае если у Вас заблокирован rutor или вдруг Вы не можете на него зайти, то Вы без труда сможете скачать бесплатно и без рекламы последние новинки кино, игр, сериалов и прочего у нас, на Rutor.in. Не нужно использовать прокси, чтобы зайти на рутор, достаточно воспользоваться нашим ресурсом. Все новые фильмы, игры, сериалы, книги и музыка за 2013 и 2014 годы через торрент бесплатно. Скачивайте фильмы в хорошем качестве, игры для пк, xbox, playstation без регистрации. У нас вы найдете новые Зарубежные сериалы и Русские сериалы 2013, 2014, 2015 годов. Оставайтесь с нами, качайте любимые фильмы, игры, сериалы, книги и музыку.