img image001 image001 image001 image001 image001 image001 image001 image001 image001 image001 image001 image001 image001 image001 image001

Planets Sun Sun Sun
Статистика раздачи
Автор: Nickolas3434 | Размер: 2.18 ГБ | Добавлен: 16 фев 2014
Раздают: 74    Качают: 49
Скачать торрент
Скачать торрент
Описание торрента

СообщениеДобавлено: 16 фев 2014 

Страна: СССР
Производство: Студия Довженко, Гостелерадио

Жанр: приключения
Год выпуска: 1985
Продолжительность: 02:10:06 (01:06:40 + 01:03:26)

Перевод: не требуется
Оригинальная аудиодорожка: русский
Cубтитры: нет

Режиссер: Николай Засеев-Руденко

В ролях:
Борис Щербаков, Игорь Старыгин, Кирилл Лавров, Георгий Мартынюк, Виталий Коняев, Степан Старчиков, Вилорий Пащенко, Игорь Слободской, Александр Костылев, Сергей Попович, Анатолий Переверзев, Игорь Черницкий, Александр Ануров...

Описание:
Идут учения военно-морского флота. Командир подводной лодки Логинов и командир большого противолодочного корабля Золотницкий становятся условными противниками. Чувствуя ответственность за свои экипажи, командиры демонстрируют высокое мастерство, порядочность и дружескую взаимовыручку…





Исходник: DVD9 R5
Тип релиза: DVDRip
Контейнер: AVI

Видео: 704x528 (4:3), 25 fps, XviD ~ 2011 kbps avg, 0.216 bit/pixel
Аудио: 48 kHz, Dolby Digital AC3 5.1, 384 kbps

Раздача от:
Общее
Полное имя : Slushat.v.otsekah.1985.DVDRip_[New-team]_by_AVP_Studio.avi
Формат : AVI
Формат/Информация : Audio Video Interleave
Размер файла : 1,12 Гбайт
Продолжительность : 1 ч. 6 м.
Общий поток : 2404 Кбит/сек
Программа кодирования : VirtualDubModRus 1.5.10.2 (build 2542/release)
Библиотека кодирования : VirtualDubMod build 2542/release

Видео
Идентификатор : 0
Формат : MPEG-4 Visual
Профиль формата : Advanced Simple@L5
Параметр BVOP формата : 1
Параметр QPel формата : Нет
Параметр GMC формата : Без точки перехода
Параметр матрицы формата : Выборочная
Идентификатор кодека : XVID
Идентификатор кодека/Подсказка : XviD
Продолжительность : 1 ч. 6 м.
Битрейт : 2011 Кбит/сек
Ширина : 704 пикселя
Высота : 528 пикселей
Соотношение сторон : 4:3
Частота кадров : 25,000 кадров/сек
Цветовое пространство : YUV
Субдискретизация насыщенности : 4:2:0
Битовая глубина : 8 бит
Тип развёртки : Прогрессивная
Метод сжатия : С потерями
Бит/(Пиксели*Кадры) : 0.216
Размер потока : 959 Мбайт (84%)
Библиотека кодирования : XviD 73

Аудио
Идентификатор : 1
Формат : AC-3
Формат/Информация : Audio Coding 3
Расширение режима : CM (complete main)
Параметр Endianness формата : Big
Идентификатор кодека : 2000
Продолжительность : 1 ч. 6 м.
Вид битрейта : Постоянный
Битрейт : 384 Кбит/сек
Каналы : 6 каналов
Расположение каналов : Front: L C R, Side: L R, LFE
Частота : 48,0 КГц
Битовая глубина : 16 бит
Метод сжатия : С потерями
Размер потока : 183 Мбайт (16%)
Выравнивание : Разделение по промежуткам
Продолжительность промежутка : 40 мс. (1,00 видеокадр)
Время предзагрузки промежутка : 500 мс



В съёмках приняла участие подводная лодка Б-36 (проект 641, заводской номер 765).
Съемки фильма проходили у черноморского побережья Крыма, в окрестностях Севастополя. В финале фильма показано празднование дня Военно-Морского флота в Севастополе, сопровождающееся песней «Легендарный Севастополь», ныне являющейся гимном города.



   Похожие торренты   Торрент   Размер 
В этой теме нет новых непрочитанных сообщений. Слушать в отсеках (1985) DVDRip-AVC от New-Team

34 | 18

2.19 ГБ

В этой теме нет новых непрочитанных сообщений. Слушать в отсеках (1985) DVDRip от New-Team

45 | 19

1.46 ГБ

В этой теме нет новых непрочитанных сообщений. Тайная прогулка (1985) DVDRip-AVC от New-Team

76 | 37

1.46 ГБ

В этой теме нет новых непрочитанных сообщений. Одиночное плавание (1985) DVDRip-AVC от New-Team

260 | 21

1.46 ГБ

В этой теме нет новых непрочитанных сообщений. Одиночное плавание (1985) DVDRip от New-Team

45 | 28

745.05 МБ

В этой теме нет новых непрочитанных сообщений. Битва за Москву (1985) DVDRip от New-Team

55 | 6

2.91 ГБ

В этой теме нет новых непрочитанных сообщений. Битва за Москву (1985) DVDRip от New-Team

16 | 1

2.18 ГБ




Вы не можете начинать темы
Вы не можете отвечать на сообщения
Вы не можете редактировать свои сообщения
Вы не можете удалять свои сообщения
Вы не можете добавлять вложения

Перейти:  
Для Мосгорсуда, Роскомнадзора и рекламодателей: mosgorsud-torrent[собачка]yandex.ru
 Вход
ppkBB3cker v.2 © 2008-2014 @ PPK
[ Time : 0.039s | 16 Queries | GZIP : Off ]

cron