img image001 image001 image001 image001 image001 image001 image001 image001 image001 image001 image001 image001 image001 image001 image001

Planets Sun Sun Sun
Статистика раздачи
Автор: Nickolas3434 | Размер: 1.46 ГБ | Добавлен: 18 фев 2014
Раздают: 45    Качают: 19
Скачать торрент
Скачать торрент
Описание торрента

СообщениеДобавлено: 18 фев 2014 

Страна: СССР
Производство: Студия Довженко, Гостелерадио

Жанр: приключения
Год выпуска: 1985
Продолжительность: 02:10:06 (01:06:40 + 01:03:26)

Перевод: не требуется
Оригинальная аудиодорожка: русский
Cубтитры: нет

Режиссер: Николай Засеев-Руденко

В ролях:
Борис Щербаков, Игорь Старыгин, Кирилл Лавров, Георгий Мартынюк, Виталий Коняев, Степан Старчиков, Вилорий Пащенко, Игорь Слободской, Александр Костылев, Сергей Попович, Анатолий Переверзев, Игорь Черницкий, Александр Ануров...

Описание:
Идут учения военно-морского флота. Командир подводной лодки Логинов и командир большого противолодочного корабля Золотницкий становятся условными противниками. Чувствуя ответственность за свои экипажи, командиры демонстрируют высокое мастерство, порядочность и дружескую взаимовыручку…





Исходник: DVD9 R5
Тип релиза: DVDRip
Контейнер: AVI

Видео: 704x528 (4:3), 25 fps, XviD ~ 1466 kbps avg, 0.158 bit/pixel
Аудио: 48 kHz, MP3 2.0, 128 kbps

Раздача от:
Общее
Полное имя : Slushat.v.otsekah.1985.DVDRip-1.46_[New-team]_by_AVP_Studio.avi
Формат : AVI
Формат/Информация : Audio Video Interleave
Размер файла : 728 Мбайт
Продолжительность : 1 ч. 3 м.
Общий поток : 1603 Кбит/сек
Программа кодирования : VirtualDubModRus 1.5.10.2 (build 2542/release)
Библиотека кодирования : VirtualDubMod build 2542/release

Видео
Идентификатор : 0
Формат : MPEG-4 Visual
Профиль формата : Advanced Simple@L5
Параметр BVOP формата : 1
Параметр QPel формата : Нет
Параметр GMC формата : Без точки перехода
Параметр матрицы формата : Выборочная
Идентификатор кодека : XVID
Идентификатор кодека/Подсказка : XviD
Продолжительность : 1 ч. 3 м.
Битрейт : 1466 Кбит/сек
Ширина : 704 пикселя
Высота : 528 пикселей
Соотношение сторон : 4:3
Частота кадров : 25,000 кадров/сек
Цветовое пространство : YUV
Субдискретизация насыщенности : 4:2:0
Битовая глубина : 8 бит
Тип развёртки : Прогрессивная
Метод сжатия : С потерями
Бит/(Пиксели*Кадры) : 0.158
Размер потока : 665 Мбайт (91%)
Библиотека кодирования : XviD 73

Аудио
Идентификатор : 1
Формат : MPEG Audio
Версия формата : Version 1
Профиль формата : Layer 3
Идентификатор кодека : 55
Идентификатор кодека/Подсказка : MP3
Продолжительность : 1 ч. 3 м.
Вид битрейта : Постоянный
Битрейт : 128 Кбит/сек
Каналы : 2 канала
Частота : 48,0 КГц
Метод сжатия : С потерями
Размер потока : 58,1 Мбайт (8%)
Выравнивание : Соединение по промежуткам
Продолжительность промежутка : 40 мс. (1,00 видеокадр)
Время предзагрузки промежутка : 504 мс.
Библиотека кодирования : LAME3.99r
Настройки программы : -m s -V 4 -q 2 -lowpass 17 -b 128



В съёмках приняла участие подводная лодка Б-36 (проект 641, заводской номер 765).
Съемки фильма проходили у черноморского побережья Крыма, в окрестностях Севастополя. В финале фильма показано празднование дня Военно-Морского флота в Севастополе, сопровождающееся песней «Легендарный Севастополь», ныне являющейся гимном города.



   Похожие торренты   Торрент   Размер 
В этой теме нет новых непрочитанных сообщений. Слушать в отсеках (1985) DVDRip-AVC от New-Team

33 | 18

2.19 ГБ

В этой теме нет новых непрочитанных сообщений. Слушать в отсеках (1985) DVDRip от New-Team

75 | 50

2.18 ГБ

В этой теме нет новых непрочитанных сообщений. Доктор Айболит (1985) DVDRip от New-Team

108 | 16

744.44 МБ

В этой теме нет новых непрочитанных сообщений. Одиночное плавание (1985) DVDRip от New-Team

45 | 30

745.05 МБ

В этой теме нет новых непрочитанных сообщений. Черная стрела (1985) DVDRip от New-Team

21 | 6

744.13 МБ

В этой теме нет новых непрочитанных сообщений. Тайная прогулка (1985) DVDRip-AVC от New-Team

79 | 38

1.46 ГБ

В этой теме нет новых непрочитанных сообщений. Тайная прогулка (1985) DVDRip от New-Team

23 | 5

743.19 МБ




Вы не можете начинать темы
Вы не можете отвечать на сообщения
Вы не можете редактировать свои сообщения
Вы не можете удалять свои сообщения
Вы не можете добавлять вложения

Перейти:  
Для Мосгорсуда, Роскомнадзора и рекламодателей: mosgorsud-torrent[собачка]yandex.ru
 Вход
ppkBB3cker v.2 © 2008-2014 @ PPK
[ Time : 0.038s | 15 Queries | GZIP : Off ]

Торрент трекер RUTOR.IN, Не можете зайти на rutor.org? Какой новый адрес рутор? Какое зеркало рутор? Не работает rutor.org и зеркала? Тогда наш торрент специально для вас. Rutor.in неофициальное зеркало rutor. В случае если у Вас заблокирован rutor или вдруг Вы не можете на него зайти, то Вы без труда сможете скачать бесплатно и без рекламы последние новинки кино, игр, сериалов и прочего у нас, на Rutor.in. Не нужно использовать прокси, чтобы зайти на рутор, достаточно воспользоваться нашим ресурсом. Все новые фильмы, игры, сериалы, книги и музыка за 2013 и 2014 годы через торрент бесплатно. Скачивайте фильмы в хорошем качестве, игры для пк, xbox, playstation без регистрации. У нас вы найдете новые Зарубежные сериалы и Русские сериалы 2013, 2014, 2015 годов. Оставайтесь с нами, качайте любимые фильмы, игры, сериалы, книги и музыку.