img image001 image001 image001 image001 image001 image001 image001 image001 image001 image001 image001 image001 image001 image001 image001

Planets Sun Sun Sun
Статистика раздачи
Автор: Nickolas3434 | Размер: 744.13 МБ | Добавлен: 18 фев 2014
Раздают: 21    Качают: 6
Скачать торрент
Скачать торрент
Описание торрента

СообщениеДобавлено: 18 фев 2014 

Страна: CCCP
Производство: Мосфильм

Жанр: приключения, история
Год выпуска: 1985
Продолжительность: 01:25:37

Перевод: не требуется
Оригинальная аудиодорожка: русский
Cубтитры: нет

Режиссер: Сергей Тарасов

В ролях:
Галина Беляева, Игорь Шавлак, Леонид Кулагин, Юрий Смирнов, Альгимантас Масюлис, Борис Химичев, Александр Филиппенко, Сергей Тарасов, Яна Друзь, Борис Хмельницкий, Владимир Разумовский, Николай Дупак, Андрей Юренев, Владимир Литвинов...


Средневековая Англия, конец XV века. Молодой Дик Шелтон начинает подозревать, что смерть его отца была не случайной: чёрная стрела, пущенная рукой Джона-мщу-за-всех, содержит приписку, гласящую, что убийцы Шелтона-старшего будут наказаны. Однако попытки Дика узнать правду о смерти отца натыкаются на глухую стену молчания и лжи. Более того, опекун Дика, сэр Дэниел, узнав о его расспросах, приказывает переселить его в «комнату, из которой исчезают», и Дик оказывается в смертельной опасности...
События фильма развиваются на фоне войны Алой и Белой Роз, и главные герои будут так или иначе участвовать в борьбе за английский престол.





Исходник: DVD5 R5
Тип релиза: DVDRip
Контейнер: AVI

Видео: 688x368 (1,85:1), 25 fps, XviD ~ 1077 kbps avg, 0.170 bit/pixel
Аудио: 48 kHz, MP3 2.0, 128 kbps

Раздача от:
Общее
Полное имя : Chernaya.strela.1985.DVDRip-745_[New-team]_by_AVP_Studio.avi
Формат : AVI
Формат/Информация : Audio Video Interleave
Размер файла : 744 Мбайт
Продолжительность : 1 ч. 25 м.
Общий поток : 1215 Кбит/сек
Программа кодирования : VirtualDubModRus 1.5.10.2 (build 2542/release)
Библиотека кодирования : VirtualDubMod build 2542/release

Видео
Идентификатор : 0
Формат : MPEG-4 Visual
Профиль формата : Advanced Simple@L5
Параметр BVOP формата : 1
Параметр QPel формата : Нет
Параметр GMC формата : Без точки перехода
Параметр матрицы формата : Выборочная
Идентификатор кодека : XVID
Идентификатор кодека/Подсказка : XviD
Продолжительность : 1 ч. 25 м.
Битрейт : 1077 Кбит/сек
Ширина : 688 пикселей
Высота : 368 пикселей
Соотношение сторон : 1,85:1
Частота кадров : 25,000 кадров/сек
Цветовое пространство : YUV
Субдискретизация насыщенности : 4:2:0
Битовая глубина : 8 бит
Тип развёртки : Прогрессивная
Метод сжатия : С потерями
Бит/(Пиксели*Кадры) : 0.170
Размер потока : 660 Мбайт (89%)
Библиотека кодирования : XviD 73

Аудио
Идентификатор : 1
Формат : MPEG Audio
Версия формата : Version 1
Профиль формата : Layer 3
Идентификатор кодека : 55
Идентификатор кодека/Подсказка : MP3
Продолжительность : 1 ч. 25 м.
Вид битрейта : Постоянный
Битрейт : 128 Кбит/сек
Каналы : 2 канала
Частота : 48,0 КГц
Метод сжатия : С потерями
Размер потока : 78,4 Мбайт (11%)
Выравнивание : Соединение по промежуткам
Продолжительность промежутка : 40 мс. (1,00 видеокадр)
Время предзагрузки промежутка : 504 мс.
Библиотека кодирования : LAME3.99r
Настройки программы : -m s -V 4 -q 2 -lowpass 17 -b 128



Лидер проката 1985 года, 5-е место — 29,8 млн зрителей.
Многие персонажи и сюжетные линии книги из фильма убраны, например, вся история неудачной попытки спасения Джоанны Седли на судне «Добрая надежда», соответственно, капитан Арблестер выброшен, конфликт Дика Шелтона с герцогом происходит из-за Хэтча и т. п.
Герцог Глостер (будущий король Ричард III) в фильме представлен лысым стариком, хотя в романе он — совсем ещё юноша, даже моложе Шелтона.
Съёмки многих сцен проходили в Хотынской крепости, Украина.



   Похожие торренты   Торрент   Размер 
В этой теме нет новых непрочитанных сообщений. Черная стрела (1985) DVDRip-AVC от New-Team

72 | 15

1.46 ГБ

В этой теме нет новых непрочитанных сообщений. Черная стрела (1985) DVDRip от New-Team

36 | 21

1.46 ГБ

В этой теме нет новых непрочитанных сообщений. Черная стрела (1987) DVDRip от Киномагия

19 | 2

1.37 ГБ

В этой теме нет новых непрочитанных сообщений. Стивенсон Роберт Льюис - Черная Стрела (2010) МРЗ

4 | 8

442.36 МБ

В этой теме нет новых непрочитанных сообщений. Стивенсон Роберт Льюис - Черная стрела (2012) MP3

30 | 9

669.81 МБ

В этой теме нет новых непрочитанных сообщений. Корабль пришельцев (1985) DVDRip от New-Team

74 | 18

744.31 МБ

В этой теме нет новых непрочитанных сообщений. Слушать в отсеках (1985) DVDRip от New-Team

75 | 50

2.18 ГБ




Вы не можете начинать темы
Вы не можете отвечать на сообщения
Вы не можете редактировать свои сообщения
Вы не можете удалять свои сообщения
Вы не можете добавлять вложения

Перейти:  
Для Мосгорсуда, Роскомнадзора и рекламодателей: mosgorsud-torrent[собачка]yandex.ru
 Вход
ppkBB3cker v.2 © 2008-2014 @ PPK
[ Time : 0.082s | 15 Queries | GZIP : Off ]

Торрент трекер RUTOR.IN, Не можете зайти на rutor.org? Какой новый адрес рутор? Какое зеркало рутор? Не работает rutor.org и зеркала? Тогда наш торрент специально для вас. Rutor.in неофициальное зеркало rutor. В случае если у Вас заблокирован rutor или вдруг Вы не можете на него зайти, то Вы без труда сможете скачать бесплатно и без рекламы последние новинки кино, игр, сериалов и прочего у нас, на Rutor.in. Не нужно использовать прокси, чтобы зайти на рутор, достаточно воспользоваться нашим ресурсом. Все новые фильмы, игры, сериалы, книги и музыка за 2013 и 2014 годы через торрент бесплатно. Скачивайте фильмы в хорошем качестве, игры для пк, xbox, playstation без регистрации. У нас вы найдете новые Зарубежные сериалы и Русские сериалы 2013, 2014, 2015 годов. Оставайтесь с нами, качайте любимые фильмы, игры, сериалы, книги и музыку.