img image001 image001 image001 image001 image001 image001 image001 image001 image001 image001 image001 image001 image001 image001 image001

Planets Sun Sun Sun
Статистика раздачи
Автор: Nickolas3434 | Размер: 1.46 ГБ | Добавлен: 18 фев 2014
Раздают: 249    Качают: 58
Скачать торрент
Скачать торрент
Описание торрента

СообщениеДобавлено: 18 фев 2014 

Информация о фильме
Оригинальное название: Возвращение в "А"
Год выхода: 2011
Жанр: Драма, военный
Режиссер: Егор Кончаловский
В ролях: Сейдулла Молдаханов, Берик Айтжанов, Наталья Аринбасарова, Гульнара Дусматова, Иван Жидков, Гоша Куценко, Аша Матай, Карлыгаш Мухамеджанова, Денис Никифоров, Андрей Шибаршин

О фильме: Группа российских телевизионщиков и казахстанских кинематографов отправляется в рискованное путешествие из Алматы в Афганистан для съемок документального кино «По дорогам Александра Македонского». Их сопровождает человек, некогда воевавший на землях Афгана и потерявший ногу в ходе боевых действий — Марат Аюмов. Он хорошо владеет фарси, знаком с обычаями, традициями и афганскими «законами». Но никто не знает, что он служил в составе мусульманского батальона спецназа ГРУ СССР под командованием легенды афганской войны «Кара Майора» и что у него есть и свои личные причины вернуться в Афганистан…



Страна: Россия, Казахстан
Студия: Студия Казахфильм
Продолжительность: 01:49:27
Язык: Русский

Файл
Тип релиза: AVI
Видео: XviD, 1706 Кбит/с, 688х368
Аудио: АС3, 2 ch, 192 Кбит/с

Семпл
Общее
Полное имя : D:залитьВозвращение в А.avi
Формат : AVI
Формат/Информация : Audio Video Interleave
Размер файла : 1,46 Гбайт
Продолжительность : 1 ч. 49 м.
Общий поток : 1904 Кбит/сек
Программа кодирования : VirtualDubMod 1.5.10.3 | www.virtualdub-fr.org || (build 2550/release)
Библиотека кодирования : VirtualDubMod build 2550/release

Видео
Идентификатор : 0
Формат : MPEG-4 Visual
Профиль формата : Advanced Simple@L5
Параметр BVOP формата : 2
Параметр QPel формата : Нет
Параметр GMC формата : Без точки перехода
Параметр матрицы формата : Default (MPEG)
Режим смешивания : Сжатый битовый поток
Идентификатор кодека : XVID
Идентификатор кодека/Подсказка : XviD
Продолжительность : 1 ч. 49 м.
Битрейт : 1703 Кбит/сек
Ширина : 688 пикселей
Высота : 368 пикселей
Соотношение сторон : 1,85:1
Частота кадров : 23,976 кадра/сек
Цветовое пространство : YUV
Субдискретизация насыщенности : 4:2:0
Битовая глубина : 8 бит
Тип развёртки : Прогрессивная
Метод сжатия : С потерями
Бит/(Пиксели*Кадры) : 0.281
Размер потока : 1,30 Гбайт (89%)
Библиотека кодирования : XviD 1.2.1 (UTC 2008-12-04)

Аудио
Идентификатор : 1
Формат : AC-3
Формат/Информация : Audio Coding 3
Расширение режима : CM (complete main)
Параметр Endianness формата : Big
Идентификатор кодека : 2000
Продолжительность : 1 ч. 49 м.
Вид битрейта : Постоянный
Битрейт : 192 Кбит/сек
Каналы : 2 канала
Расположение каналов : Front: L R
Частота : 48,0 КГц
Битовая глубина : 16 бит
Метод сжатия : С потерями
Размер потока : 150 Мбайт (10%)
Выравнивание : Разделение по промежуткам
Продолжительность промежутка : 42 мс. (1,00 видеокадр)
Время предзагрузки промежутка : 500 мс.



Релиз:



   Похожие торренты   Торрент   Размер 
В этой теме нет новых непрочитанных сообщений. Возвращение Титаника [01-02 из 02] (1999) TVRip

47 | 11

2.08 ГБ

В этой теме нет новых непрочитанных сообщений. Возвращение со звёзд (1989) TVRip

5 | 0

2.67 ГБ

В этой теме нет новых непрочитанных сообщений. Бородин. Возвращение генерала [01-08 из 08] (2008) TVRip

64 | 7

3.13 ГБ

В этой теме нет новых непрочитанных сообщений. Возвращение Мухтара 2 [02x01-50] (2006) TVRip

12 | 7

20.96 ГБ

В этой теме нет новых непрочитанных сообщений. Белые росы. Возвращение (2014) TVRip

1023 | 49

814.89 МБ

В этой теме нет новых непрочитанных сообщений. Тайный знак 2: Возвращение хозяина [01-08 из 08] (2003) TVRip

12 | 9

4.24 ГБ

В этой теме нет новых непрочитанных сообщений. Сыла. Возвращение домой / Sila [1-146] (2006-2008) TVRip

2 | 4

85.53 ГБ




Вы не можете начинать темы
Вы не можете отвечать на сообщения
Вы не можете редактировать свои сообщения
Вы не можете удалять свои сообщения
Вы не можете добавлять вложения

Перейти:  
Для Мосгорсуда, Роскомнадзора и рекламодателей: mosgorsud-torrent[собачка]yandex.ru
 Вход
ppkBB3cker v.2 © 2008-2014 @ PPK
[ Time : 0.045s | 18 Queries | GZIP : Off ]

cron