img image001 image001 image001 image001 image001 image001 image001 image001 image001 image001 image001 image001 image001 image001 image001

Planets Sun Sun Sun
Статистика раздачи
Автор: Nickolas3434 | Размер: 745.04 МБ | Добавлен: 19 фев 2014
Раздают: 149    Качают: 87
Скачать торрент
Скачать торрент
Описание торрента

СообщениеДобавлено: 19 фев 2014 


Страна: Россия / Alti Films
Жанр: драма
Год выпуска: 2013
Продолжительность: 01:40:58

Перевод: Не требуется
Cубтитры: нет
Оригинальная аудиодорожка: русский

Режиссер: Геннадий Сидоров

В ролях: Игорь Триф, Ксения Собчак, Кирилл Плетнёв, Владимир Яглыч, Галина Звягинцева, Наталья Коляканова, Янис Политов, Валентина Березуцкая, Геннадий Сидоров, Далер Маджидов...

Описание: Вадим Масленников, главный герой кинокартины, — наш современник. Такой же как мы, вернее, как многие из нас. Чей-то сын, чей-то друг, чей-то враг, чей-то любимый…
А правильно ли он живет? А как нужно жить? Так, чтобы след на земле для потомков оставить? И не в буквальном смысле землю нашу топтать, а чтобы прожить достойно и самое дорогое не растерять. А нужно ли это вообще? А главное — кому нужно?
Череда извечных вопросов: важных, насущных и очень простых — терзают его мысли, соблазны рвут его душу. Он пытается найти ответы, но попадает в круговорот непонимания, жестокости, безразличия, разочарования и насилия. Насилия над самим собой, над собственным Я.
И все же он будет пытаться жить, любить, страдать, терять и ненавидеть… Но сможет ли он…? И хватит ли у него сил вернуться, откуда обычно возврата нет…



Качество: DVDRip / DVD9 R5
Формат: AVI

Видео: 656x352 (1.85:1), 25.000 fps, XviD ~ 894 kbps avg, 0.155 bit/pixel
Аудио: 48 kHz, Dolby МР3, 2 ch, 128 kbps, русский

Раздача от:
Общее
Полное имя : Roman.s.kokainom.2013.O.DVDRip.745MB_[New.Team]_by_avproh.avi
Формат : AVI
Формат/Информация : Audio Video Interleave
Размер файла : 745 Мбайт
Продолжительность : 1 ч. 40 м.
Общий поток : 1032 Кбит/сек
Программа кодирования : VirtualDubMod 1.5.10.3 | www.virtualdub-fr.org || (build 2550/release)
Библиотека кодирования : VirtualDubMod build 2550/release

Видео
Идентификатор : 0
Формат : MPEG-4 Visual
Профиль формата : Advanced Simple@L5
Параметр BVOP формата : 1
Параметр QPel формата : Нет
Параметр GMC формата : Без точки перехода
Параметр матрицы формата : Выборочная
Идентификатор кодека : XVID
Идентификатор кодека/Подсказка : XviD
Продолжительность : 1 ч. 40 м.
Битрейт : 894 Кбит/сек
Ширина : 656 пикселей
Высота : 352 пикселя
Соотношение сторон : 1,85:1
Частота кадров : 25,000 кадров/сек
Цветовое пространство : YUV
Субдискретизация насыщенности : 4:2:0
Битовая глубина : 8 бит
Тип развёртки : Прогрессивная
Метод сжатия : С потерями
Бит/(Пиксели*Кадры) : 0.155
Размер потока : 646 Мбайт (87%)
Библиотека кодирования : XviD 73

Аудио
Идентификатор : 1
Формат : MPEG Audio
Версия формата : Version 1
Профиль формата : Layer 3
Идентификатор кодека : 55
Идентификатор кодека/Подсказка : MP3
Продолжительность : 1 ч. 40 м.
Вид битрейта : Постоянный
Битрейт : 128 Кбит/сек
Каналы : 2 канала
Частота : 48,0 КГц
Метод сжатия : С потерями
Размер потока : 92,4 Мбайт (12%)
Выравнивание : Соединение по промежуткам
Продолжительность промежутка : 40 мс. (1,00 видеокадр)
Время предзагрузки промежутка : 504 мс.







   Похожие торренты   Торрент   Размер 
В этой теме нет новых непрочитанных сообщений. Роман с кокаином (2013) DVDRip от New-Team | лицензия

891 | 392

1.46 ГБ

В этой теме нет новых непрочитанных сообщений. Роман с кокаином (2013) DVDRip-AVC от New-Team | лицензия

271 | 45

1.45 ГБ

В этой теме нет новых непрочитанных сообщений. Роман с кокаином (2013) DVD9 R5 от New-Team | лицензия

24 | 19

6.64 ГБ

В этой теме нет новых непрочитанных сообщений. Роман с кокаином (2013) DVDRip-AVC от RG WazZzuP | лицензия

79 | 28

744.9 МБ

В этой теме нет новых непрочитанных сообщений. Роман с кокаином (2013) DVD5 от New-Team | сжатый

20 | 21

4.37 ГБ

В этой теме нет новых непрочитанных сообщений. Роман с кокаином (2014) DVDRip от Sanjar & NeoJet | КПК

47 | 3

267.42 МБ

В этой теме нет новых непрочитанных сообщений. Роман, наводящий ужас / Кошмарный роман / Chilling Romance / Spellbound / Eerie Romance (2011) HDRip от BTT-TEAM

1 | 2

1.53 ГБ




Вы не можете начинать темы
Вы не можете отвечать на сообщения
Вы не можете редактировать свои сообщения
Вы не можете удалять свои сообщения
Вы не можете добавлять вложения

Перейти:  
Для Мосгорсуда, Роскомнадзора и рекламодателей: mosgorsud-torrent[собачка]yandex.ru
 Вход
ppkBB3cker v.2 © 2008-2014 @ PPK
[ Time : 0.085s | 15 Queries | GZIP : Off ]

Торрент трекер RUTOR.IN, Не можете зайти на rutor.org? Какой новый адрес рутор? Какое зеркало рутор? Не работает rutor.org и зеркала? Тогда наш торрент специально для вас. Rutor.in неофициальное зеркало rutor. В случае если у Вас заблокирован rutor или вдруг Вы не можете на него зайти, то Вы без труда сможете скачать бесплатно и без рекламы последние новинки кино, игр, сериалов и прочего у нас, на Rutor.in. Не нужно использовать прокси, чтобы зайти на рутор, достаточно воспользоваться нашим ресурсом. Все новые фильмы, игры, сериалы, книги и музыка за 2013 и 2014 годы через торрент бесплатно. Скачивайте фильмы в хорошем качестве, игры для пк, xbox, playstation без регистрации. У нас вы найдете новые Зарубежные сериалы и Русские сериалы 2013, 2014, 2015 годов. Оставайтесь с нами, качайте любимые фильмы, игры, сериалы, книги и музыку.