img image001 image001 image001 image001 image001 image001 image001 image001 image001 image001 image001 image001 image001 image001 image001

Planets Sun Sun Sun
Статистика раздачи
Автор: Nickolas3434 | Размер: 1.45 ГБ | Добавлен: 20 фев 2014
Раздают: 271    Качают: 45
Скачать торрент
Скачать торрент
Описание торрента

СообщениеДобавлено: 20 фев 2014 


Страна: Россия / Alti Films
Жанр: драма
Год выпуска: 2013
Продолжительность: 01:40:58

Перевод: Не требуется
Cубтитры: нет
Оригинальная аудиодорожка: русский

Режиссер: Геннадий Сидоров

В ролях: Игорь Триф, Ксения Собчак, Кирилл Плетнёв, Владимир Яглыч, Галина Звягинцева, Наталья Коляканова, Янис Политов, Валентина Березуцкая, Геннадий Сидоров, Далер Маджидов...

Описание: Вадим Масленников, главный герой кинокартины, — наш современник. Такой же как мы, вернее, как многие из нас. Чей-то сын, чей-то друг, чей-то враг, чей-то любимый…
А правильно ли он живет? А как нужно жить? Так, чтобы след на земле для потомков оставить? И не в буквальном смысле землю нашу топтать, а чтобы прожить достойно и самое дорогое не растерять. А нужно ли это вообще? А главное — кому нужно?
Череда извечных вопросов: важных, насущных и очень простых — терзают его мысли, соблазны рвут его душу. Он пытается найти ответы, но попадает в круговорот непонимания, жестокости, безразличия, разочарования и насилия. Насилия над самим собой, над собственным Я.
И все же он будет пытаться жить, любить, страдать, терять и ненавидеть… Но сможет ли он…? И хватит ли у него сил вернуться, откуда обычно возврата нет…



Качество: DVDRip-AVC / DVD9 R5
Формат: MKV

Видео: 720x552@1024x552 (1.85:1), 25.000 fps, H264 ~ 1614 kbps avg, 0.162 bit/pixel
Аудио: 48 kHz, Dolby AC3, 6 ch, 448 kbps, русский

Раздача от:
Общее
Полное имя : Roman.s.kokainom.2013.O.DVDRip-AVC_[New.Team]_by_avproh.mkv
Формат : Matroska
Версия формата : Version 2
Размер файла : 1,45 Гбайт
Продолжительность : 1 ч. 40 м.
Общий поток : 2062 Кбит/сек
Дата кодирования : UTC 2014-02-18 21:12:31
Программа кодирования : mkvmerge v6.1.0 ('Old Devil') built on Mar 4 2013 09:10:42
Библиотека кодирования : libebml v1.3.0 + libmatroska v1.4.0

Видео
Идентификатор : 1
Формат : AVC
Формат/Информация : Advanced Video Codec
Профиль формата : High@L4.1
Параметр CABAC формата : Да
Параметр ReFrames формата : 6 кадров
Идентификатор кодека : V_MPEG4/ISO/AVC
Продолжительность : 1 ч. 40 м.
Битрейт : 1614 Кбит/сек
Ширина : 720 пикселей
Высота : 552 пикселя
Соотношение сторон : 1,85:1
Режим частоты кадров : Постоянный
Частота кадров : 25,000 кадров/сек
Цветовое пространство : YUV
Субдискретизация насыщенности : 4:2:0
Битовая глубина : 8 бит
Тип развёртки : Прогрессивная
Бит/(Пиксели*Кадры) : 0.162
Размер потока : 1,11 Гбайт (76%)
Библиотека кодирования : x264 core 138 r2356 a1d3d17
Настройки программы : cabac=1 / ref=6 / deblock=1:-2:-1 / analyse=0x3:0x113 / me=umh / subme=10 / psy=1 / psy_rd=1.00:0.05 / mixed_ref=1 / me_range=32 / chroma_me=1 / trellis=2 / 8x8dct=1 / cqm=0 / deadzone=21,11 / fast_pskip=0 / chroma_qp_offset=-3 / threads=9 / lookahead_threads=1 / sliced_threads=0 / nr=0 / decimate=0 / interlaced=0 / bluray_compat=0 / constrained_intra=0 / bframes=8 / b_pyramid=2 / b_adapt=2 / b_bias=0 / direct=3 / weightb=1 / open_gop=0 / weightp=2 / keyint=250 / keyint_min=25 / scenecut=40 / intra_refresh=0 / rc=2pass / mbtree=0 / bitrate=1614 / ratetol=1.0 / qcomp=0.60 / qpmin=0 / qpmax=69 / qpstep=4 / cplxblur=20.0 / qblur=0.5 / ip_ratio=1.40 / pb_ratio=1.30 / aq=1:1.00
Default : Да
Forced : Нет

Аудио
Идентификатор : 2
Формат : AC-3
Формат/Информация : Audio Coding 3
Расширение режима : CM (complete main)
Параметр Endianness формата : Big
Идентификатор кодека : A_AC3
Продолжительность : 1 ч. 40 м.
Вид битрейта : Постоянный
Битрейт : 448 Кбит/сек
Каналы : 6 каналов
Расположение каналов : Front: L C R, Side: L R, LFE
Частота : 48,0 КГц
Битовая глубина : 16 бит
Метод сжатия : С потерями
Размер потока : 324 Мбайт (22%)
Default : Да
Forced : Нет







   Похожие торренты   Торрент   Размер 
В этой теме нет новых непрочитанных сообщений. Роман с кокаином (2013) DVDRip от New-Team | лицензия

149 | 87

745.04 МБ

В этой теме нет новых непрочитанных сообщений. Роман с кокаином (2013) DVDRip от New-Team | лицензия

887 | 392

1.46 ГБ

В этой теме нет новых непрочитанных сообщений. Роман с кокаином (2013) DVD9 R5 от New-Team | лицензия

24 | 19

6.64 ГБ

В этой теме нет новых непрочитанных сообщений. Роман с кокаином (2013) DVDRip-AVC от RG WazZzuP | лицензия

79 | 28

744.9 МБ

В этой теме нет новых непрочитанных сообщений. Роман с кокаином (2013) DVD5 от New-Team | сжатый

20 | 21

4.37 ГБ

В этой теме нет новых непрочитанных сообщений. Роман с кокаином (2014) DVDRip от Sanjar & NeoJet | КПК

47 | 3

267.42 МБ

В этой теме нет новых непрочитанных сообщений. Роман, наводящий ужас / Кошмарный роман / Chilling Romance / Spellbound / Eerie Romance (2011) HDRip от BTT-TEAM

1 | 2

1.53 ГБ




Вы не можете начинать темы
Вы не можете отвечать на сообщения
Вы не можете редактировать свои сообщения
Вы не можете удалять свои сообщения
Вы не можете добавлять вложения

Перейти:  
Для Мосгорсуда, Роскомнадзора и рекламодателей: mosgorsud-torrent[собачка]yandex.ru
 Вход
ppkBB3cker v.2 © 2008-2014 @ PPK
[ Time : 0.027s | 16 Queries | GZIP : Off ]

Торрент трекер RUTOR.IN, Не можете зайти на rutor.org? Какой новый адрес рутор? Какое зеркало рутор? Не работает rutor.org и зеркала? Тогда наш торрент специально для вас. Rutor.in неофициальное зеркало rutor. В случае если у Вас заблокирован rutor или вдруг Вы не можете на него зайти, то Вы без труда сможете скачать бесплатно и без рекламы последние новинки кино, игр, сериалов и прочего у нас, на Rutor.in. Не нужно использовать прокси, чтобы зайти на рутор, достаточно воспользоваться нашим ресурсом. Все новые фильмы, игры, сериалы, книги и музыка за 2013 и 2014 годы через торрент бесплатно. Скачивайте фильмы в хорошем качестве, игры для пк, xbox, playstation без регистрации. У нас вы найдете новые Зарубежные сериалы и Русские сериалы 2013, 2014, 2015 годов. Оставайтесь с нами, качайте любимые фильмы, игры, сериалы, книги и музыку.