img image001 image001 image001 image001 image001 image001 image001 image001 image001 image001 image001 image001 image001 image001 image001

Planets Sun Sun Sun
Статистика раздачи
Автор: Nickolas3434 | Размер: 2.18 ГБ | Добавлен: 21 фев 2014
Раздают: 234    Качают: 76
Скачать торрент
Скачать торрент
Описание торрента

СообщениеДобавлено: 21 фев 2014 

Информация о фильме
Оригинальное название: Всё включено 2
Год выпуска: 2013
Жанр: Комедия
Режиссер: Эдуард Радзюкевич
В ролях: Михаил Беспалов, Фёдор Добронравов, Роман Мадянов, Сергей Бурунов, Эдуард Радзюкевич, Андрей Кайков, Григорий Сиятвинда, Карэн Бадалов, Илья Уткин, Михаил Семин

Описание: Когда приятель похож на тебя как две капли воды, тут уж грех не поучаствовать в конкурсе двойников и не срубить легкие деньги в доллар-эквиваленте. И разве может помешать то, что ради этого надо лететь в Стамбул накануне собственной свадьбы?! Чтобы доказать будущему тестю-олигарху, что он способен позаботиться о его дочери, Андрей скрывает от невесты истинную цель своего путешествия и улетает в Турцию. Только планам парня не суждено сбыться, когда он встречает в Стамбуле старинных врагов и безумных друзей. И те, и другие превратят турецкий вояж Андрея в сумасшедший калейдоскоп приключений с риском для жизни.


Страна: Россия
Студия: Парадиз
Продолжительность: 01:39:09

Файл
Качество: BDRip (AVC)
Видео: MPEG-4 AVC, 2696 Кбит/с, 1024x438, 24.000 кадр/с
Аудио: Русский (AC3, 6 ch, 448 Кбит/с)

Семпл



x264 [info]: frame I:1720 Avg QP:16.01 size: 82729
x264 [info]: frame P:38876 Avg QP:19.19 size: 25864
x264 [info]: frame B:102168 Avg QP:20.97 size: 8386
x264 [info]: consecutive B-frames: 5.5% 5.5% 14.1% 31.2% 18.1% 20.8% 2.8% 0.7% 0.4% 0.3% 0.2% 0.1% 0.3%
**************************************************************************************************************************
Общее
Уникальный идентификатор : 179783361171235527281254445160955344659 (0x874104109870D08090A22FFAA4B37713)
Полное имя : D:Mои раздачиVse.vkluceno.2013.BDRip.(AVC)-MediaClub.mkv
Формат : Matroska
Версия формата : Version 4 / Version 2
Размер файла : 2,18 Гбайт
Продолжительность : 1 ч. 39 м.
Общий поток : 3146 Кбит/сек
Название фильма : -=MediaClub-kaspr=-
Дата кодирования : UTC 2014-02-20 06:02:44
Программа кодирования : mkvmerge v6.1.0 ('Old Devil') built on Mar 4 2013 09:10:42
Библиотека кодирования : libebml v1.3.0 + libmatroska v1.4.0

Видео
Идентификатор : 1
Формат : AVC
Формат/Информация : Advanced Video Codec
Профиль формата : High@L4.1
Параметр CABAC формата : Да
Параметр ReFrames формата : 10 кадров
Идентификатор кодека : V_MPEG4/ISO/AVC
Продолжительность : 1 ч. 39 м.
Битрейт : 2696 Кбит/сек
Ширина : 1024 пикселя
Высота : 438 пикселей
Соотношение сторон : 2,35:1
Режим частоты кадров : Постоянный
Частота кадров : 24,000 кадра/сек
Цветовое пространство : YUV
Субдискретизация насыщенности : 4:2:0
Битовая глубина : 8 бит
Тип развёртки : Прогрессивная
Бит/(Пиксели*Кадры) : 0.250
Размер потока : 1,82 Гбайт (84%)
Заголовок : -=MediaClub-kaspr=-
Библиотека кодирования : x264 core 140 r2377+40 929f149 tMod [8-bit@4:2:0 X86_64]
Настройки программы : cabac=1 / ref=10 / deblock=1:-3:-3 / analyse=0x3:0x133 / me=umh / subme=11 / psy=1 / fade_compensate=0.00 / psy_rd=1.00:0.20 / mixed_ref=1 / me_range=32 / chroma_me=1 / trellis=2 / 8x8dct=1 / cqm=0 / deadzone=21,11 / fast_pskip=0 / chroma_qp_offset=-3 / threads=12 / lookahead_threads=3 / sliced_threads=0 / nr=0 / decimate=0 / interlaced=0 / bluray_compat=0 / constrained_intra=0 / fgo=0 / bframes=12 / b_pyramid=2 / b_adapt=2 / b_bias=0 / direct=3 / weightb=1 / open_gop=0 / weightp=2 / keyint=240 / keyint_min=24 / scenecut=40 / intra_refresh=0 / rc=2pass / mbtree=0 / bitrate=2696 / ratetol=1.0 / qcomp=0.60 / qpmin=0:0:0 / qpmax=69:69:69 / qpstep=4 / cplxblur=20.0 / qblur=0.5 / ip_ratio=1.40 / pb_ratio=1.30 / aq=2:1.00 / aq-sensitivity=10.00 / aq-factor=1.00:1.00:1.00 / aq2=0 / aq3=0
Default : Да
Forced : Да

Аудио
Идентификатор : 2
Формат : AC-3
Формат/Информация : Audio Coding 3
Расширение режима : CM (complete main)
Параметр Endianness формата : Big
Идентификатор кодека : A_AC3
Продолжительность : 1 ч. 39 м.
Вид битрейта : Постоянный
Битрейт : 448 Кбит/сек
Каналы : 6 каналов
Расположение каналов : Front: L C R, Side: L R, LFE
Частота : 48,0 КГц
Битовая глубина : 16 бит
Метод сжатия : С потерями
Размер потока : 318 Мбайт (14%)
Язык : Russian
Default : Да
Forced : Да

Меню
00:00:00.000 : ru:Chapter 1
00:00:37.458 : ru:Chapter 2
00:12:50.375 : ru:Chapter 3
00:21:21.833 : ru:Chapter 4
00:30:07.666 : ru:Chapter 5
00:44:20.916 : ru:Chapter 6
00:58:01.916 : ru:Chapter 7
01:13:14.833 : ru:Chapter 8
01:22:23.041 : ru:Chapter 9


Релиз: |



   Похожие торренты   Торрент   Размер 
В этой теме нет новых непрочитанных сообщений. Всё включено 2 (2013) BDRip от HQCLUB | Лицензия

466 | 17

1.45 ГБ

В этой теме нет новых непрочитанных сообщений. Всё включено 2 (2013) BDRip 720p | Лицензия

37 | 3

3.91 ГБ

В этой теме нет новых непрочитанных сообщений. Всё включено 2 (2013) BDRip 1080p | Лицензия

186 | 2

8.07 ГБ

В этой теме нет новых непрочитанных сообщений. Всё включено 2 (2013) BDRip-AVC от HELLYWOOD | Лицензия

61 | 7

1.46 ГБ

В этой теме нет новых непрочитанных сообщений. Всё включено 2 (2013) BDRip 720p от leonardo 59 & Scarabey | Лицензия

64 | 5

3.47 ГБ

В этой теме нет новых непрочитанных сообщений. Всё включено 2 (2013) Blu-Ray 1080p | Лицензия

3 | 3

21.03 ГБ

В этой теме нет новых непрочитанных сообщений. Всё включено 2 (2013) HDRip | Лицензия

420 | 11

1.46 ГБ




Вы не можете начинать темы
Вы не можете отвечать на сообщения
Вы не можете редактировать свои сообщения
Вы не можете удалять свои сообщения
Вы не можете добавлять вложения

Перейти:  
Для Мосгорсуда, Роскомнадзора и рекламодателей: mosgorsud-torrent[собачка]yandex.ru
 Вход
ppkBB3cker v.2 © 2008-2014 @ PPK
[ Time : 0.019s | 16 Queries | GZIP : Off ]

Торрент трекер RUTOR.IN, Не можете зайти на rutor.org? Какой новый адрес рутор? Какое зеркало рутор? Не работает rutor.org и зеркала? Тогда наш торрент специально для вас. Rutor.in неофициальное зеркало rutor. В случае если у Вас заблокирован rutor или вдруг Вы не можете на него зайти, то Вы без труда сможете скачать бесплатно и без рекламы последние новинки кино, игр, сериалов и прочего у нас, на Rutor.in. Не нужно использовать прокси, чтобы зайти на рутор, достаточно воспользоваться нашим ресурсом. Все новые фильмы, игры, сериалы, книги и музыка за 2013 и 2014 годы через торрент бесплатно. Скачивайте фильмы в хорошем качестве, игры для пк, xbox, playstation без регистрации. У нас вы найдете новые Зарубежные сериалы и Русские сериалы 2013, 2014, 2015 годов. Оставайтесь с нами, качайте любимые фильмы, игры, сериалы, книги и музыку.