img image001 image001 image001 image001 image001 image001 image001 image001 image001 image001 image001 image001 image001 image001 image001

Planets Sun Sun Sun
Статистика раздачи
Автор: Nickolas3434 | Размер: 1.12 ГБ | Добавлен: 21 фев 2014
Раздают: 12    Качают: 11
Скачать торрент
Скачать торрент
Описание торрента

СообщениеДобавлено: 21 фев 2014 

Информация о фильме
Название: Крылья
Год выхода: 1966
Жанр: Драматическая история
Режиссер: Лариса Шепитько
В ролях: Майя Булгакова, Жанна Болотова, Пантелеймон Крымов, Леонид Дьячков, Сергей Никоненко, Николай Граббе, Римма Маркова, Аркадий Трусов, Ольга Гобзева, Евгений Евстигнеев

О фильме:
Давно окончилась война, но для героини фильма, бывшей летчицы, только те годы и были наполнены подлинным смыслом. Она глубоко переживает разлад с действительностью, отсутствие контакта с дочерью. Ей никак не удается приспособиться к этой мирной, обыденной жизни, в ней не гаснет пронзительное желание летать…

Страна: СССР
Студия: Мосфильм
Продолжительность: 01:21:13.280
Перевод: не требуется

Файл
Кодек: h.264
Качество: DVDRip-AVC
Видео: 704x544 (1.381) @ 752x544 (анаморф), 25.000 fps, AVC, ~1780 Kbps, 0.186 bits/pixel
Звук: Русский, 48.0 KHz, AC3, 2 ch, 192 Kbps
Субтитры: нет

Общее
Уникальный идентификатор : 180171933658557777448377775970959880461 (0x878BDA2AE6A5497498F68470F95DF10D)
Полное имя : D:FilmsKrilya.1966.DVDRip-AVC.mkv
Формат : Matroska
Версия формата : Version 4 / Version 2
Размер файла : 1,12 Гбайт
Продолжительность : 1 ч. 21 м.
Общий поток : 1974 Кбит/сек
Дата кодирования : UTC 2014-02-20 07:14:47
Программа кодирования : mkvmerge v6.7.0 ('Back to the Ground') 64bit built on Jan 8 2014 15:10:52
Библиотека кодирования : libebml v1.3.0 + libmatroska v1.4.1

Видео
Идентификатор : 1
Формат : AVC
Формат/Информация : Advanced Video Codec
Профиль формата : High@L4.1
Параметр CABAC формата : Да
Параметр ReFrames формата : 16 кадров
Идентификатор кодека : V_MPEG4/ISO/AVC
Продолжительность : 1 ч. 21 м.
Битрейт : 1780 Кбит/сек
Ширина : 704 пикселя
Высота : 544 пикселя
Соотношение сторон : 1,381
Режим частоты кадров : Постоянный
Частота кадров : 25,000 кадров/сек
Цветовое пространство : YUV
Субдискретизация насыщенности : 4:2:0
Битовая глубина : 8 бит
Тип развёртки : Прогрессивная
Бит/(Пиксели*Кадры) : 0.186
Размер потока : 1012 Мбайт (88%)
Библиотека кодирования : x264 core 138 r2358 9e941d1
Настройки программы : cabac=1 / ref=16 / deblock=1:0:0 / analyse=0x3:0x133 / me=umh / subme=10 / psy=1 / psy_rd=1.10:0.10 / mixed_ref=1 / me_range=32 / chroma_me=1 / trellis=2 / 8x8dct=1 / cqm=0 / deadzone=21,11 / fast_pskip=0 / chroma_qp_offset=-6 / threads=8 / lookahead_threads=1 / sliced_threads=0 / nr=0 / decimate=0 / interlaced=0 / bluray_compat=0 / constrained_intra=0 / bframes=7 / b_pyramid=2 / b_adapt=2 / b_bias=0 / direct=3 / weightb=1 / open_gop=0 / weightp=2 / keyint=250 / keyint_min=25 / scenecut=60 / intra_refresh=0 / rc_lookahead=60 / rc=2pass / mbtree=0 / bitrate=1780 / ratetol=1.0 / qcomp=0.60 / qpmin=0 / qpmax=69 / qpstep=4 / cplxblur=20.0 / qblur=0.5 / vbv_maxrate=50000 / vbv_bufsize=62500 / nal_hrd=none / ip_ratio=1.40 / pb_ratio=1.30 / aq=2:1.00
Default : Нет
Forced : Нет
Коэффициенты матрицы : BT.601

Аудио
Идентификатор : 2
Формат : AC-3
Формат/Информация : Audio Coding 3
Расширение режима : CM (complete main)
Параметр Endianness формата : Big
Идентификатор кодека : A_AC3
Продолжительность : 1 ч. 21 м.
Вид битрейта : Постоянный
Битрейт : 192 Кбит/сек
Каналы : 2 канала
Расположение каналов : Front: L R
Частота : 48,0 КГц
Битовая глубина : 16 бит
Метод сжатия : С потерями
Размер потока : 112 Мбайт (10%)
Язык : Russian
Default : Да
Forced : Нет

Меню
00:00:00.000 : en:Chapter 01
00:09:33.720 : en:Chapter 02
00:15:52.120 : en:Chapter 03
00:27:09.680 : en:Chapter 04
00:37:54.840 : en:Chapter 05
00:47:51.600 : en:Chapter 06
00:56:16.600 : en:Chapter 07
01:01:44.800 : en:Chapter 08
01:06:07.800 : en:Chapter 09
01:12:56.240 : en:Chapter 10


Исходник R5 Крупный План. Серия "Отечественное кино XX века".

frame I:574 Avg QP:16.60 size: 44768
frame P:31098 Avg QP:19.27 size: 18508
frame B:90160 Avg QP:20.95 size: 5358



Релиз от: Temperest



   Похожие торренты   Торрент   Размер 
В этой теме нет новых непрочитанных сообщений. Июльский дождь (1966) DVDRip-AVC от Temperest

337 | 45

1.34 ГБ

В этой теме нет новых непрочитанных сообщений. Сделано в США / Made in U.S.A. (1966) DVDRip-AVC от Temperest

4 | 3

1.48 ГБ

В этой теме нет новых непрочитанных сообщений. Мужское-женское / Masculin féminin (1966) DVDRip-AVC от Temperest

120 | 6

2.17 ГБ

В этой теме нет новых непрочитанных сообщений. Крылья (2013) DVDRip от -=HD-NET=-

144 | 2

702.34 МБ

В этой теме нет новых непрочитанных сообщений. Крылья ангела (2008) DVDRip

76 | 14

1.36 ГБ

В этой теме нет новых непрочитанных сообщений. Крылья России [01-18 из 18] (2008) DVDRip от ExKinoRay

91 | 23

12.37 ГБ

В этой теме нет новых непрочитанных сообщений. Чужие крылья [01-06 из 6] (2011) DVDRip - КинозалSAT

162 | 17

3.22 ГБ




Вы не можете начинать темы
Вы не можете отвечать на сообщения
Вы не можете редактировать свои сообщения
Вы не можете удалять свои сообщения
Вы не можете добавлять вложения

Перейти:  
Для Мосгорсуда, Роскомнадзора и рекламодателей: mosgorsud-torrent[собачка]yandex.ru
 Вход
ppkBB3cker v.2 © 2008-2014 @ PPK
[ Time : 0.049s | 17 Queries | GZIP : Off ]

Торрент трекер RUTOR.IN, Не можете зайти на rutor.org? Какой новый адрес рутор? Какое зеркало рутор? Не работает rutor.org и зеркала? Тогда наш торрент специально для вас. Rutor.in неофициальное зеркало rutor. В случае если у Вас заблокирован rutor или вдруг Вы не можете на него зайти, то Вы без труда сможете скачать бесплатно и без рекламы последние новинки кино, игр, сериалов и прочего у нас, на Rutor.in. Не нужно использовать прокси, чтобы зайти на рутор, достаточно воспользоваться нашим ресурсом. Все новые фильмы, игры, сериалы, книги и музыка за 2013 и 2014 годы через торрент бесплатно. Скачивайте фильмы в хорошем качестве, игры для пк, xbox, playstation без регистрации. У нас вы найдете новые Зарубежные сериалы и Русские сериалы 2013, 2014, 2015 годов. Оставайтесь с нами, качайте любимые фильмы, игры, сериалы, книги и музыку.