img image001 image001 image001 image001 image001 image001 image001 image001 image001 image001 image001 image001 image001 image001 image001

Planets Sun Sun Sun
Статистика раздачи
Автор: Nickolas3434 | Размер: 2.47 ГБ | Добавлен: 21 фев 2014
Раздают: 122    Качают: 36
Скачать торрент
Скачать торрент
Описание торрента

СообщениеДобавлено: 21 фев 2014 

Информация о фильме
Название: Олимпийская деревня
Год выхода: 2011
Жанр: комедия
Режиссер: Александр Сухарев
В ролях: Михаил Ефремов, Валерий Гаркалин, Денис Никифоров, Виктор Бычков, Алексей Булдаков, Геннадий Хазанов, Инга Оболдина, Галина Петрова, Сергей Колешня, Настя Городенцева, Тимофей Трибунцев, Владимир Гусев.

О фильме:
«Старт дает Москва! Деревня зажигает!»
Москва. Август 1980-го года. Власти СССР готовят Москву к приезду олимпийских гостей. В связи с кампанией по «очищению» Москвы, неблагонадежных граждан, инакомыслящих и диссидентов на время олимпиады отправляют за 101-й километр в дачные поселки и санатории.
Деревня «Протасово» живет своей привычной жизнью — дачники едят овощи с грядки, местные жители пьют за олимпийские рекорды. Московские гости органично вписались в деревенский пейзаж. Устроив хиппи-лагерь на берегу реки, они пьют портвейн и дают импровизированные рок-концерты.
Когда все герои собираются в деревушке, начинается то, что называется настоящей комедией. На фоне спортивных достижений и олимпийских побед, в деревне происходит своя «олимпиада». Запутанный клубок невероятно комичных ситуаций разматывает двухсоткилограммовый боров по имени «Мальчик», в то время как в Москве олимпийский Мишка поднимается над трибунами…
Страна: Россия
Студия: Амигос фильм
Продолжительность: 01:19:06
Перевод: Не требуется

Файл
Кодек: MPEG-PS
Качество: DVB
Видео: MPEG-2; 720x576@1024x576, ~4190 Kbps
Звук: MPEG Layer 3, 2 ch, 192 kbps

Общее
Полное имя Олимпийская деревня__DVB by volk & UAOnline.mpg
Формат : MPEG-PS
Размер файла : 2,47 Гбайт
Продолжительность : 1 ч. 19 м.
Режим общего битрейта : Переменный
Общий поток : 4474 Кбит/сек
Библиотека кодирования : (c) 1998-2010 Womble Multimedia, Inc. / MPEG Video Wizard DVD 5.0.0.114 (01/2010) / Nov 13 2010

Видео
Идентификатор : 224 (0xE0)
Формат : MPEG Video
Версия формата : Version 2
Профиль формата : Main@Main
Параметр BVOP формата : Да
Параметр матрицы формата : Выборочная
Продолжительность : 1 ч. 19 м.
Вид битрейта : Переменный
Битрейт : 4193 Кбит/сек
Максимальный битрейт : 15,0 Мбит/сек
Ширина : 720 пикселей
Высота : 576 пикселей
Соотношение сторон : 16:9
Частота кадров : 25,000 кадров/сек
Стандарт вещания : PAL
Цветовое пространство : YUV
Субдискретизация насыщенности : 4:2:0
Битовая глубина : 8 бит
Тип развёртки : Чересстрочная
Порядок развёртки : Верхнее поле первое
Метод сжатия : С потерями
Бит/(Пиксели*Кадры) : 0.404
Размер потока : 2,32 Гбайт (94%)
Библиотека кодирования : (c) 1998-2010 Womble Multimedia, Inc. / MPEG Video Wizard DVD 5.0.0.114 (01/2010) / Nov 13 2010

Аудио
Идентификатор : 192 (0xC0)
Формат : MPEG Audio
Версия формата : Version 1
Профиль формата : Layer 2
Продолжительность : 1 ч. 19 м.
Вид битрейта : Постоянный
Битрейт : 192 Кбит/сек
Каналы : 2 канала
Частота : 48,0 КГц
Метод сжатия : С потерями
Размер потока : 109 Мбайт (4%)



   Похожие торренты   Торрент   Размер 
В этой теме нет новых непрочитанных сообщений. Олимпийская деревня (2010) DVB-AVC от olegek70

9 | 5

1.36 ГБ

В этой теме нет новых непрочитанных сообщений. Олимпийская деревня (2010) DVDRip

34 | 10

1.36 ГБ

В этой теме нет новых непрочитанных сообщений. Исчезающая деревня / Xiaoshi De Cunzhuang (2011) DVDScr | L1

1 | 0

750.15 МБ

В этой теме нет новых непрочитанных сообщений. Деревня Утка (1976) DVDRip

12 | 6

1.37 ГБ

В этой теме нет новых непрочитанных сообщений. Деревня Утка (1976) DVDRip

6 | 3

699.78 МБ

В этой теме нет новых непрочитанных сообщений. Вот моя деревня (1985) SATRip от Files-x

159 | 11

1.38 ГБ

В этой теме нет новых непрочитанных сообщений. Деревня / The Village [S01] (2013) SATRip | Jaskier

32 | 5

3.4 ГБ




Вы не можете начинать темы
Вы не можете отвечать на сообщения
Вы не можете редактировать свои сообщения
Вы не можете удалять свои сообщения
Вы не можете добавлять вложения

Перейти:  
Для Мосгорсуда, Роскомнадзора и рекламодателей: mosgorsud-torrent[собачка]yandex.ru
 Вход
ppkBB3cker v.2 © 2008-2014 @ PPK
[ Time : 0.095s | 16 Queries | GZIP : Off ]
CGP output time : 0.059s | 5 Queries | GZIP : Off

Торрент трекер RUTOR.IN, Не можете зайти на rutor.org? Какой новый адрес рутор? Какое зеркало рутор? Не работает rutor.org и зеркала? Тогда наш торрент специально для вас. Rutor.in неофициальное зеркало rutor. В случае если у Вас заблокирован rutor или вдруг Вы не можете на него зайти, то Вы без труда сможете скачать бесплатно и без рекламы последние новинки кино, игр, сериалов и прочего у нас, на Rutor.in. Не нужно использовать прокси, чтобы зайти на рутор, достаточно воспользоваться нашим ресурсом. Все новые фильмы, игры, сериалы, книги и музыка за 2013 и 2014 годы через торрент бесплатно. Скачивайте фильмы в хорошем качестве, игры для пк, xbox, playstation без регистрации. У нас вы найдете новые Зарубежные сериалы и Русские сериалы 2013, 2014, 2015 годов. Оставайтесь с нами, качайте любимые фильмы, игры, сериалы, книги и музыку.