img image001 image001 image001 image001 image001 image001 image001 image001 image001 image001 image001 image001 image001 image001 image001

Planets Sun Sun Sun
Статистика раздачи
Автор: Nickolas3434 | Размер: 2.05 ГБ | Добавлен: 22 фев 2014
Раздают: 52    Качают: 13
Скачать торрент
Скачать торрент
Описание торрента

СообщениеДобавлено: 22 фев 2014 

Информация о фильме

Оригинальное название: Чемпионы
Год выпуска: 2014
Жанр: Драма, спорт
Выпущено: Россия, Enjoy Movies, Renovatio ent.
Режиссер: Дмитрий Дюжев, Артём Аксёненко, Алексей Вакулов, Эмиль Никогосян
В ролях: Светлана Ходченкова, Алексей Чадов, Марк Богатырёв, Андрей Смоляков, Константин Крюков, Татьяна Арнтгольц, Таисия Вилкова, Александр Молочников, Максим Виторган, Ангелина Добророднова, Ольга Тумайкина, Андрей Федорцов, Екатерина Климова, Михаил Горевой, Игорь Верник, Дмитрий Губерниев, Виктор Гусев (III), Семен Трескунов, Юлия Гришина, Андрис Лиелайс, Анатолий Лобоцкий, Александр Сазонов, Андрей Лебедев, Тимур Ефременков, Егор Клинаев, Виталий Абдулов, Евгений Шириков
О фильме: В центре сюжета фильма история пути к чемпионским титулам нескольких спортсменов. Пять реальных историй олимпийских медалей России. Пять историй, где переплетаются любовь, предательство, дружба. Это истории настоящих побед. И за каждой победой стоит уважение, труд и вера в себя, в близких и в свою страну.

Файл

Качество: BDRip (AVC)
Видео: MPEG-4 AVC, 2550 Кбит/с, 1024x428, 24 кадр/с
Аудио: АС3, 6 ch, 448 Кбит/с
Размер: 2.05 ГБ
Продолжительность: 1:37:55
Язык: Русский
За исходник, большое спасибо HDClub
Сохранены оригинальные чаптеры как на Blu-Ray
Общее
Уникальный идентификатор : 217963433382452902199628151224503653259 (0xA3FA3AF5CF826EB68F7AD3E22440538B)
Полное имя : D:ЗагрузкиChempioni.2014.x264.BDRip.(AVC).ExKinoRay.mkv
Формат : Matroska
Версия формата : Version 2
Размер файла : 2,05 Гбайт
Продолжительность : 1 ч. 37 м.
Общий поток : 2999 Кбит/сек
Название фильма : Чемпионы.2014.Rip by: ollan
Дата кодирования : UTC 2014-02-21 19:44:26
Программа кодирования : mkvmerge v5.6.0 ('Kenya Kane') built on May 27 2012 16:44:04
Библиотека кодирования : libebml v1.2.3 + libmatroska v1.3.0

Видео
Идентификатор : 1
Формат : AVC
Формат/Информация : Advanced Video Codec
Профиль формата : High@L4.1
Параметр CABAC формата : Да
Параметр ReFrames формата : 9 кадров
Идентификатор кодека : V_MPEG4/ISO/AVC
Продолжительность : 1 ч. 37 м.
Битрейт : 2550 Кбит/сек
Ширина : 1024 пикселя
Высота : 428 пикселей
Соотношение сторон : 2,40:1
Режим частоты кадров : Постоянный
Частота кадров : 24,000 кадра/сек
Цветовое пространство : YUV
Субдискретизация насыщенности : 4:2:0
Битовая глубина : 8 бит
Тип развёртки : Прогрессивная
Бит/(Пиксели*Кадры) : 0.242
Размер потока : 1,70 Гбайт (83%)
Библиотека кодирования : x264 core 125 r2200 999b753
Настройки программы : cabac=1 / ref=9 / deblock=1:-3:-3 / analyse=0x3:0x133 / me=umh / subme=11 / psy=1 / psy_rd=1.00:0.10 / mixed_ref=1 / me_range=32 / chroma_me=1 / trellis=2 / 8x8dct=1 / cqm=0 / deadzone=21,11 / fast_pskip=0 / chroma_qp_offset=-3 / threads=12 / lookahead_threads=2 / sliced_threads=0 / nr=0 / decimate=0 / interlaced=0 / bluray_compat=0 / constrained_intra=0 / bframes=9 / b_pyramid=2 / b_adapt=2 / b_bias=0 / direct=3 / weightb=1 / open_gop=0 / weightp=2 / keyint=240 / keyint_min=23 / scenecut=40 / intra_refresh=0 / rc_lookahead=40 / rc=2pass / mbtree=1 / bitrate=2550 / ratetol=1.0 / qcomp=0.60 / qpmin=0 / qpmax=69 / qpstep=4 / cplxblur=20.0 / qblur=0.5 / ip_ratio=1.40 / aq=1:1.00
Язык : Russian
Default : Да
Forced : Нет

Аудио
Идентификатор : 2
Формат : AC-3
Формат/Информация : Audio Coding 3
Расширение режима : CM (complete main)
Параметр Endianness формата : Big
Идентификатор кодека : A_AC3
Продолжительность : 1 ч. 37 м.
Вид битрейта : Постоянный
Битрейт : 448 Кбит/сек
Каналы : 6 каналов
Расположение каналов : Front: L C R, Side: L R, LFE
Частота : 48,0 КГц
Битовая глубина : 16 бит
Метод сжатия : С потерями
Размер потока : 314 Мбайт (15%)
Язык : Russian
Default : Нет
Forced : Нет

Меню
00:00:00.000 : :Chapter 01
00:00:04.000 : :Chapter 02
00:10:56.708 : :Chapter 03
00:25:52.875 : :Chapter 04
00:36:33.250 : :Chapter 05
00:52:38.541 : :Chapter 06
01:01:39.833 : :Chapter 07
01:17:17.750 : :Chapter 08
01:29:19.875 : :Chapter 09







Релиз от: Rip by:



   Похожие торренты   Торрент   Размер 
В этой теме нет новых непрочитанных сообщений. Чемпионы (2014) BDRip от HQ-ViDEO

52 | 18

1.45 ГБ

В этой теме нет новых непрочитанных сообщений. Чемпионы (2014) BDRip от HQ-ViDEO

12 | 3

1.45 ГБ

В этой теме нет новых непрочитанных сообщений. Чемпионы: Быстрее. Выше. Сильнее (2016) WEB-DLRip (AVC) от ExKinoRay | iTunes

2779 | 199

1.46 ГБ

В этой теме нет новых непрочитанных сообщений. Чемпионы (2014) BDRip-AVC от HELLYWOOD | Лицензия

97 | 9

1.64 ГБ

В этой теме нет новых непрочитанных сообщений. Чемпионы (2014) BDRip от HQCLUB | Лицензия

620 | 17

1.46 ГБ

В этой теме нет новых непрочитанных сообщений. Чемпионы (2014) BDRip-AVC от New-Team | Лицензия

1097 | 81

744.8 МБ

В этой теме нет новых непрочитанных сообщений. Чемпионы (2014) BDRip 1080p | Лицензия

329 | 60

7.25 ГБ




Вы не можете начинать темы
Вы не можете отвечать на сообщения
Вы не можете редактировать свои сообщения
Вы не можете удалять свои сообщения
Вы не можете добавлять вложения

Перейти:  
Для Мосгорсуда, Роскомнадзора и рекламодателей: mosgorsud-torrent[собачка]yandex.ru
 Вход
ppkBB3cker v.2 © 2008-2014 @ PPK
[ Time : 0.648s | 15 Queries | GZIP : Off ]

Торрент трекер RUTOR.IN, Не можете зайти на rutor.org? Какой новый адрес рутор? Какое зеркало рутор? Не работает rutor.org и зеркала? Тогда наш торрент специально для вас. Rutor.in неофициальное зеркало rutor. В случае если у Вас заблокирован rutor или вдруг Вы не можете на него зайти, то Вы без труда сможете скачать бесплатно и без рекламы последние новинки кино, игр, сериалов и прочего у нас, на Rutor.in. Не нужно использовать прокси, чтобы зайти на рутор, достаточно воспользоваться нашим ресурсом. Все новые фильмы, игры, сериалы, книги и музыка за 2013 и 2014 годы через торрент бесплатно. Скачивайте фильмы в хорошем качестве, игры для пк, xbox, playstation без регистрации. У нас вы найдете новые Зарубежные сериалы и Русские сериалы 2013, 2014, 2015 годов. Оставайтесь с нами, качайте любимые фильмы, игры, сериалы, книги и музыку.