img image001 image001 image001 image001 image001 image001 image001 image001 image001 image001 image001 image001 image001 image001 image001

Planets Sun Sun Sun
Статистика раздачи
Автор: Nickolas3434 | Размер: 1.43 ГБ | Добавлен: 22 фев 2014
Раздают: 273    Качают: 29
Скачать торрент
Скачать торрент
Описание торрента

СообщениеДобавлено: 22 фев 2014 

Информация о фильме
Название: Свадьба по обмену
Год выхода: 2011
Жанр: Mелодрама, комедия
Режиссер: Дмитрий Грачев
В ролях: Екатерина Вилкова, Максим Матвеев, Фёдор Бондарчук, Ксения Каталымова, Мария Кожевникова, Арарат Кещян, Андрей Малахов, Дарья Субботина, Александр Самойленко, Александр Тодчук

О фильме:
Супермодель Соня мечтает о тихом семейном счастье с давним бойфрендом Русланом - самовлюблённым ведущим популярного кулинарного шоу. Но тот не разделяет её мечты, он грезит только о славе и повышении собственного рейтинга, поэтому делает Соне предложение руки и сердца в присутствии толпы репортеров.В отместку, Соня решает выйти замуж за обычного банковского клерка Сашу. Тот соглашается и тоже назло любимой девушке, Кристине. Уже выйдя из загса, Саша и Соня понимают, что погорячились. Но делать нечего, теперь им приходится изображать перед всеми счастливую влюбленную пару, скрывая взаимную ненависть.Однако от ненависти до любви...

Страна: Россия
Студия: Мосфильм, Централ Партнершип
Продолжительность: 01:29:03
Перевод: Не требуется

Файл
Кодек: h.264
Качество: BDRip-AVC
Видео: AVC, 1024 x 556, ~1941 kbps
Звук: AC-3, 6 ch, 320 kbps | Лицензия

Общее
Полное имя : G:Свадьба.по.обмену.2011.BDRip-AVC..mkv
Формат : Matroska
Версия формата : Version 1
Размер файла : 1,43 Гбайт
Продолжительность : 1 ч. 29 м.
Общий поток : 2307 Кбит/сек
Дата кодирования : UTC 2014-02-21 19:08:27
Библиотека кодирования : WonderShare Matroska Muxer

Видео
Идентификатор : 1
Формат : AVC
Формат/Информация : Advanced Video Codec
Профиль формата : Baseline@L3.0
Параметр CABAC формата : Нет
Параметр ReFrames формата : 1 кадр
Идентификатор кодека : V_MPEG4/ISO/AVC
Продолжительность : 1 ч. 29 м.
Битрейт : 1941 Кбит/сек
Ширина : 1024 пикселя
Высота : 556 пикселей
Соотношение сторон : 16:9
Соотношение сторон в оригинале : 1,85:1
Режим частоты кадров : Постоянный
Частота кадров : 24,000 кадра/сек
Цветовое пространство : YUV
Субдискретизация насыщенности : 4:2:0
Битовая глубина : 8 бит
Тип развёртки : Прогрессивная
Бит/(Пиксели*Кадры) : 0.142
Размер потока : 1,21 Гбайт (84%)
Библиотека кодирования : c
Default : Да
Forced : Нет

Аудио
Идентификатор : 2
Формат : AC-3
Формат/Информация : Audio Coding 3
Расширение режима : CM (complete main)
Параметр Endianness формата : Big
Идентификатор кодека : A_AC3
Продолжительность : 1 ч. 29 м.
Вид битрейта : Постоянный
Битрейт : 320 Кбит/сек
Каналы : 6 каналов
Расположение каналов : Front: L C R, Side: L R, LFE
Частота : 48,0 КГц
Битовая глубина : 16 бит
Метод сжатия : С потерями
Размер потока : 204 Мбайт (14%)
Default : Да
Forced : Нет



   Похожие торренты   Торрент   Размер 
В этой теме нет новых непрочитанных сообщений. Свадьба по обмену (2011) BDRip от HQCLUB | Лицензия

59 | 9

1.45 ГБ

В этой теме нет новых непрочитанных сообщений. Свадьба по обмену (2011) BDRip 720p

8 | 7

4.36 ГБ

В этой теме нет новых непрочитанных сообщений. Свадьба по обмену (2011) BDRip от HQ-ViDEO

68 | 8

1.45 ГБ

В этой теме нет новых непрочитанных сообщений. Свадьба по обмену (2011) BDRip от HELLYWOOD

11 | 2

1.45 ГБ

В этой теме нет новых непрочитанных сообщений. Свадьба по обмену (2011) BDRip 1080p

5 | 18

8.07 ГБ

В этой теме нет новых непрочитанных сообщений. Свадьба по обмену (2011) Blu-Ray

0 | 19

17.21 ГБ

В этой теме нет новых непрочитанных сообщений. Свадьба по обмену (2011) BDRemux

0 | 2

14.52 ГБ




Вы не можете начинать темы
Вы не можете отвечать на сообщения
Вы не можете редактировать свои сообщения
Вы не можете удалять свои сообщения
Вы не можете добавлять вложения

Перейти:  
Для Мосгорсуда, Роскомнадзора и рекламодателей: mosgorsud-torrent[собачка]yandex.ru
 Вход
ppkBB3cker v.2 © 2008-2014 @ PPK
[ Time : 0.591s | 17 Queries | GZIP : On ]

Торрент трекер RUTOR.IN, Не можете зайти на rutor.org? Какой новый адрес рутор? Какое зеркало рутор? Не работает rutor.org и зеркала? Тогда наш торрент специально для вас. Rutor.in неофициальное зеркало rutor. В случае если у Вас заблокирован rutor или вдруг Вы не можете на него зайти, то Вы без труда сможете скачать бесплатно и без рекламы последние новинки кино, игр, сериалов и прочего у нас, на Rutor.in. Не нужно использовать прокси, чтобы зайти на рутор, достаточно воспользоваться нашим ресурсом. Все новые фильмы, игры, сериалы, книги и музыка за 2013 и 2014 годы через торрент бесплатно. Скачивайте фильмы в хорошем качестве, игры для пк, xbox, playstation без регистрации. У нас вы найдете новые Зарубежные сериалы и Русские сериалы 2013, 2014, 2015 годов. Оставайтесь с нами, качайте любимые фильмы, игры, сериалы, книги и музыку.