img image001 image001 image001 image001 image001 image001 image001 image001 image001 image001 image001 image001 image001 image001 image001

Planets Sun Sun Sun
Статистика раздачи
Автор: Nickolas3434 | Размер: 1.45 ГБ | Добавлен: 23 фев 2014
Раздают: 364    Качают: 16
Скачать торрент
Скачать торрент
Описание торрента

СообщениеДобавлено: 23 фев 2014 

Информация о фильме
Оригинальное название: Любовь в большом городе 3
Год выпуска: 2014
Жанр: Комедия
Выпущено: Россия
Режиссер: Марюс Вайсберг, Дэвид Додсон
В ролях:Алексей Чадов, Владимир Зеленский, Светлана Ходченкова, Вера Брежнева, Вилле Хаапасало, Настя Задорожная, Филипп Киркоров, Шэрон Стоун, Игорь Жижикин, Екатерина Климова


В жизни каждого отца, рано или поздно наступает момент, когда жена улетает на заслуженный отдых, а он остается один на один с собственным ребенком. Казалось бы — ничего сложного! Также подумали Игорь, Артем и Сауна, даже не подозревая, какой «водопад» приключений накроет их с головой.Измученные «прелестями» отцовства, парни встречают своего старого приятеля Святого Валентина. Снимая стресс за бутылочкой виски, ребята в шутку мечтают о том, чтобы их дети поскорее стали взрослыми.А на утро, шокированные папаши понимают — их мечта сбылась и теперь они на собственной шкуре поймут, что значит поговорка: Большие дети — большие проблемы…
Файл
Формат: MKV (H.264)
Качество: WEB-DLRip-AVC | Лицензия
Видео: AVC at 2255 Кбит/сек,1024 x 576 (1.778) at 25.000 fps
Аудио: AC3, 384 kb/s (6 ch) | Лицензия
Продолжительность: 01:18:45
Язык: Русский
Semple.mkv
Код:
Общее
Уникальный идентификатор                 : 216378767264969875192224254951711639395 (0xA2C908E371AACB488268121DA0C50763)
Полное имя                               : D:Рипы выкладка [Deadmauvlad]Рипы готовыеLubov.V.Bolshom.Gorode.2013.O.WEBDLRip.Deadmauvlad.1.45.GB___R.G.__Goldenshara.mkv
Формат                                   : Matroska
Версия формата                           : Version 4 / Version 2
Размер файла                             : 1,45 Гбайт
Продолжительность                        : 1 ч. 18 м.
Общий поток                              : 2640 Кбит/сек
Дата кодирования                         : UTC 2014-02-21 10:21:49
Программа кодирования                    : mkvmerge v6.5.0 ('Isn't she lovely') built on Oct 20 2013 12:50:05
Библиотека кодирования                   : libebml v1.3.0 + libmatroska v1.4.1

Видео
Идентификатор                            : 1
Формат                                   : AVC
Формат/Информация                        : Advanced Video Codec
Профиль формата                          : High@L4.1
Параметр CABAC формата                   : Да
Параметр ReFrames формата                : 3 кадра
Идентификатор кодека                     : V_MPEG4/ISO/AVC
Продолжительность                        : 1 ч. 18 м.
Битрейт                                  : 2255 Кбит/сек
Ширина                                   : 1024 пикселя
Высота                                   : 576 пикселей
Соотношение сторон                       : 16:9
Режим частоты кадров                     : Постоянный
Частота кадров                           : 25,000 кадров/сек
Цветовое пространство                    : YUV
Субдискретизация насыщенности            : 4:2:0
Битовая глубина                          : 8 бит
Тип развёртки                            : Прогрессивная
Бит/(Пиксели*Кадры)                      : 0.153
Размер потока                            : 1,21 Гбайт (83%)
Заголовок                                : Lubov.V.Bolshom.Gorode.2013.O.WEBDLRip.Deadmauvlad
Библиотека кодирования                   : x264 core 130 r2273 b3065e6
Настройки программы                      : cabac=1 / ref=3 / deblock=1:-1:-1 / analyse=0x3:0x113 / me=hex / subme=7 / psy=1 / psy_rd=1.00:0.15 / mixed_ref=1 / me_range=16 / chroma_me=1 / trellis=1 / 8x8dct=1 / cqm=0 / deadzone=21,11 / fast_pskip=1 / chroma_qp_offset=-3 / threads=3 / lookahead_threads=1 / sliced_threads=0 / nr=0 / decimate=1 / interlaced=0 / bluray_compat=1 / constrained_intra=0 / bframes=3 / b_pyramid=1 / b_adapt=2 / b_bias=0 / direct=1 / weightb=1 / open_gop=0 / weightp=1 / keyint=250 / keyint_min=1 / scenecut=40 / intra_refresh=0 / rc_lookahead=40 / rc=2pass / mbtree=1 / bitrate=2255 / ratetol=1.0 / qcomp=0.60 / qpmin=0 / qpmax=69 / qpstep=4 / cplxblur=20.0 / qblur=0.5 / ip_ratio=1.40 / aq=1:1.00
Язык                                     : Russian
Default                                  : Да
Forced                                   : Да
Основные цвета                           : BT.709
Характеристики трансфера                 : BT.709
Коэффициенты матрицы                     : BT.709

Аудио
Идентификатор                            : 2
Формат                                   : AC-3
Формат/Информация                        : Audio Coding 3
Расширение режима                        : CM (complete main)
Параметр Endianness формата              : Big
Идентификатор кодека                     : A_AC3
Продолжительность                        : 1 ч. 18 м.
Вид битрейта                             : Постоянный
Битрейт                                  : 384 Кбит/сек
Каналы                                   : 6 каналов
Расположение каналов                     : Front: L C R, Side: L R, LFE
Частота                                  : 48,0 КГц
Битовая глубина                          : 16 бит
Метод сжатия                             : С потерями
Размер потока                            : 216 Мбайт (15%)
Язык                                     : Russian
Default                                  : Да
Forced                                   : Да

http://screenshotcomparison.com/comparison/63683/picture:0








Rip Deadmauvlad

Релиз Goldenshara



   Похожие торренты   Торрент   Размер 
В этой теме нет новых непрочитанных сообщений. Любовь в большом городе 3 [01-04 из 08] (2014) WEB-DLRip от MediaClub | Расширенная ТВ-версия

10 | 25

2.54 ГБ

В этой теме нет новых непрочитанных сообщений. Любовь в большом городе 3 [01-08 из 08] (2014) WEB-DLRip (AVC) от Generalfilm | Расширенная ТВ-версия

65 | 50

4.38 ГБ

В этой теме нет новых непрочитанных сообщений. Любовь в большом городе 3 [01-08 из 08] (2014) WEB-DLRip от MediaClub | Расширенная ТВ-версия

47 | 73

5.08 ГБ

В этой теме нет новых непрочитанных сообщений. Любовь в большом городе 3 [01-06 из 08] (2014) WEB-DLRip от MediaClub | Расширенная ТВ-версия

14 | 8

3.81 ГБ

В этой теме нет новых непрочитанных сообщений. Любовь в большом городе 3 (2013) WEB-DLRip от Scarabey

846 | 67

1.45 ГБ

В этой теме нет новых непрочитанных сообщений. Любовь в большом городе 3 (2013) WEB-DLRip от ivandubskoj

164 | 10

1.43 ГБ

В этой теме нет новых непрочитанных сообщений. Любовь в большом городе 3 [05-06 из 08] (2014) TVRip

91 | 51

1.01 ГБ




Вы не можете начинать темы
Вы не можете отвечать на сообщения
Вы не можете редактировать свои сообщения
Вы не можете удалять свои сообщения
Вы не можете добавлять вложения

Перейти:  
Для Мосгорсуда, Роскомнадзора и рекламодателей: mosgorsud-torrent[собачка]yandex.ru
 Вход
ppkBB3cker v.2 © 2008-2014 @ PPK
[ Time : 0.039s | 16 Queries | GZIP : Off ]

cron