img image001 image001 image001 image001 image001 image001 image001 image001 image001 image001 image001 image001 image001 image001 image001

Planets Sun Sun Sun
Статистика раздачи
Автор: Nickolas3434 | Размер: 744.93 МБ | Добавлен: 23 фев 2014
Раздают: 42    Качают: 9
Скачать торрент
Скачать торрент
Описание торрента

СообщениеДобавлено: 23 фев 2014 

Страна: CCCP
Производство: Мосфильм

Жанр: боевик
Год выпуска: 1986
Продолжительность: 01:23:45

Перевод: не требуется
Оригинальная аудиодорожка: русский
Cубтитры: нет

Режиссер: Александр Гордон

В ролях:
Борис Щербаков, Эммануил Виторган, Ирина Метлицкая, Сергей Приселков, Олег Голубицкий, Алексей Иващенко, Георгий Мартиросян, Борис Химичёв, Алексей Золотницкий, Омар Волмер, Вадим Вильский, Роза Макагонова, Вероника Изотова, Лариса Кронберг (Соболевская), Александр Мовчан, Наталия Орлова, Екатерина Тарковская, Леонид Торкиани, Александр Яцко...


В горах одной из западных стран группа террористов блокировала гостиницу и расположенный рядом детский санаторий. В числе заложников оказываются два советских шофера международных грузовых перевозок и наводчица гангстеров, знающая о предстоящем взрыве в случае невыполнения государством условий террористов…





Исходник: DVВ
Тип релиза: SATRip
Контейнер: AVI

Видео: 688x304 (2,25:1), 25 fps, XviD ~ 1042 kbps avg, 0.199 bit/pixel
Аудио: 48 kHz, Dolby Digital AC3 2.0, 192 kbps

Раздача от:
Общее
Полное имя : Vykup.1986.SATRip_[New-team]_by_AVP_Studio.avi
Формат : AVI
Формат/Информация : Audio Video Interleave
Размер файла : 745 Мбайт
Продолжительность : 1 ч. 23 м.
Общий поток : 1244 Кбит/сек
Программа кодирования : VirtualDubModRus 1.5.10.2 (build 2542/release)
Библиотека кодирования : VirtualDubMod build 2542/release

Видео
Идентификатор : 0
Формат : MPEG-4 Visual
Профиль формата : Advanced Simple@L5
Параметр BVOP формата : 1
Параметр QPel формата : Нет
Параметр GMC формата : Без точки перехода
Параметр матрицы формата : Выборочная
Идентификатор кодека : XVID
Идентификатор кодека/Подсказка : XviD
Продолжительность : 1 ч. 23 м.
Битрейт : 1042 Кбит/сек
Ширина : 688 пикселей
Высота : 304 пикселя
Соотношение сторон : 2,25:1
Частота кадров : 25,000 кадров/сек
Цветовое пространство : YUV
Субдискретизация насыщенности : 4:2:0
Битовая глубина : 8 бит
Тип развёртки : Прогрессивная
Метод сжатия : С потерями
Бит/(Пиксели*Кадры) : 0.199
Размер потока : 624 Мбайт (84%)
Библиотека кодирования : XviD 73

Аудио
Идентификатор : 1
Формат : AC-3
Формат/Информация : Audio Coding 3
Расширение режима : CM (complete main)
Параметр Endianness формата : Big
Идентификатор кодека : 2000
Продолжительность : 1 ч. 23 м.
Вид битрейта : Постоянный
Битрейт : 192 Кбит/сек
Каналы : 2 канала
Расположение каналов : Front: L R
Частота : 48,0 КГц
Битовая глубина : 16 бит
Метод сжатия : С потерями
Размер потока : 115 Мбайт (15%)
Выравнивание : Разделение по промежуткам
Продолжительность промежутка : 40 мс. (1,00 видеокадр)
Время предзагрузки промежутка : 500 мс





   Похожие торренты   Торрент   Размер 
В этой теме нет новых непрочитанных сообщений. Выкуп (1986) SATRip-AVC от New-Team

24 | 10

743.88 МБ

В этой теме нет новых непрочитанных сообщений. Выкуп / Ransom (1996) BDRip 720p от Element team

3 | 5

2.19 ГБ

В этой теме нет новых непрочитанных сообщений. Выкуп / Butterfly on a Wheel (2007) BDRip (720p) от NOLIMITS-TEAM

6 | 2

2.18 ГБ

В этой теме нет новых непрочитанных сообщений. Выкуп / Ransom (1996) BDRip 1080p от NoLimits-Team & FireBit-Films | P, A

4 | 5

9.85 ГБ

В этой теме нет новых непрочитанных сообщений. Я сделал все, что мог (1986) SATRip от New-Team

14 | 13

745.54 МБ

В этой теме нет новых непрочитанных сообщений. Я сделал все, что мог (1986) SATRip-AVC от New-Team

47 | 11

744.67 МБ

В этой теме нет новых непрочитанных сообщений. Человек без паспорта (1986) SATRip-AVC от New-Team

50 | 36

1.46 ГБ




Вы не можете начинать темы
Вы не можете отвечать на сообщения
Вы не можете редактировать свои сообщения
Вы не можете удалять свои сообщения
Вы не можете добавлять вложения

Перейти:  
Для Мосгорсуда, Роскомнадзора и рекламодателей: mosgorsud-torrent[собачка]yandex.ru
 Вход
ppkBB3cker v.2 © 2008-2014 @ PPK
[ Time : 0.057s | 15 Queries | GZIP : Off ]

Торрент трекер RUTOR.IN, Не можете зайти на rutor.org? Какой новый адрес рутор? Какое зеркало рутор? Не работает rutor.org и зеркала? Тогда наш торрент специально для вас. Rutor.in неофициальное зеркало rutor. В случае если у Вас заблокирован rutor или вдруг Вы не можете на него зайти, то Вы без труда сможете скачать бесплатно и без рекламы последние новинки кино, игр, сериалов и прочего у нас, на Rutor.in. Не нужно использовать прокси, чтобы зайти на рутор, достаточно воспользоваться нашим ресурсом. Все новые фильмы, игры, сериалы, книги и музыка за 2013 и 2014 годы через торрент бесплатно. Скачивайте фильмы в хорошем качестве, игры для пк, xbox, playstation без регистрации. У нас вы найдете новые Зарубежные сериалы и Русские сериалы 2013, 2014, 2015 годов. Оставайтесь с нами, качайте любимые фильмы, игры, сериалы, книги и музыку.