img image001 image001 image001 image001 image001 image001 image001 image001 image001 image001 image001 image001 image001 image001 image001

Planets Sun Sun Sun
Статистика раздачи
Автор: Nickolas3434 | Размер: 1.46 ГБ | Добавлен: 23 фев 2014
Раздают: 49    Качают: 16
Скачать торрент
Скачать торрент
Описание торрента

СообщениеДобавлено: 23 фев 2014 

Страна: СССР, Польша, Чехословакия, Германия (ФРГ)
Производство: Allianz Filmproduktion, Filmové Studio Barrandov, Мосфильм, Zepoli Filmove

Жанр: приключения
Год выпуска: 1986
Продолжительность: 02:19:26 (01:10:35 + 01:08:51)

Перевод: не требуется
Оригинальная аудиодорожка: русский
Cубтитры: нет

Режиссер: Сергей Бондарчук

В ролях:
Сергей Бондарчук, Александр Соловьев, Анатолий Ромашин, Анатолий Васильев (II), Адриана Беджиньска, Евгений Самойлов, Роман Филиппов, Вячеслав Бутенко, Алена Бондарчук, Геннадий Митрофанов, Валерий Сторожик, Юрий Лазарев, Владимир Седов, Георгий Бурков, Вадим Александров, Ирина Скобцева, Кира Головко, Людмила Коршакова, Федор Бондарчук, Хенек Махалица, Ольгерд Лукашевич, Мариан Дженджель, Владимир Новиков, Виктор Яковлев, Олег Михайлов, Борис Химичев, Александр Титоренко, Норберт Кухинке, Виктор Смирнов, Юрий Шерстнев, Владимир Ферапонтов, Юра Матюхин, Валерий Шептекита, Галина Демина, Иван Лапиков, Николай Ерофеев, Александр Сайко, Владислав Комар...

Описание:
По одноименной пьесе А. С. Пушкина. Действие происходит в конце XVI века, накануне «смутного времени». Главное действующее лицо этой исторической трагедии — русский царь Борис Годунов, взошедший на престол вслед за Иваном Грозным после трагических событий: смерти старшего сына Грозного Федора и гибели юного царевича Димитрия…





Исходник: DVD9 R5
Тип релиза: DVDRip
Контейнер: AVI

Видео: 688x512 (4:3), 25 fps, XviD ~ 1358 kbps avg, 0.154 bit/pixel
Аудио: 48 kHz, MP3 2.0, 128 kbps

Раздача от:
Общее
Полное имя : Boris.Godunov.1986.DVDRip-1.46_[New-team]_by_AVP_Studio1.avi
Формат : AVI
Формат/Информация : Audio Video Interleave
Размер файла : 755 Мбайт
Продолжительность : 1 ч. 10 м.
Общий поток : 1496 Кбит/сек
Программа кодирования : VirtualDubModRus 1.5.10.2 (build 2542/release)
Библиотека кодирования : VirtualDubMod build 2542/release

Видео
Идентификатор : 0
Формат : MPEG-4 Visual
Профиль формата : Advanced Simple@L5
Параметр BVOP формата : 1
Параметр QPel формата : Нет
Параметр GMC формата : Без точки перехода
Параметр матрицы формата : Выборочная
Идентификатор кодека : XVID
Идентификатор кодека/Подсказка : XviD
Продолжительность : 1 ч. 10 м.
Битрейт : 1358 Кбит/сек
Ширина : 688 пикселей
Высота : 512 пикселей
Соотношение сторон : 4:3
Частота кадров : 25,000 кадров/сек
Цветовое пространство : YUV
Субдискретизация насыщенности : 4:2:0
Битовая глубина : 8 бит
Тип развёртки : Прогрессивная
Метод сжатия : С потерями
Бит/(Пиксели*Кадры) : 0.154
Размер потока : 686 Мбайт (91%)
Библиотека кодирования : XviD 73

Аудио
Идентификатор : 1
Формат : MPEG Audio
Версия формата : Version 1
Профиль формата : Layer 3
Идентификатор кодека : 55
Идентификатор кодека/Подсказка : MP3
Продолжительность : 1 ч. 10 м.
Вид битрейта : Постоянный
Битрейт : 128 Кбит/сек
Каналы : 2 канала
Частота : 48,0 КГц
Метод сжатия : С потерями
Размер потока : 64,6 Мбайт (9%)
Выравнивание : Соединение по промежуткам
Продолжительность промежутка : 40 мс. (1,00 видеокадр)
Время предзагрузки промежутка : 504 мс.
Библиотека кодирования : LAME3.99r
Настройки программы : -m s -V 4 -q 2 -lowpass 17 -b 128



«Борис Годунов» — последний фильм Сергея Бондарчука, который вышел на экраны при его жизни.



   Похожие торренты   Торрент   Размер 
В этой теме нет новых непрочитанных сообщений. Борис Годунов (1986) DVDRip от New-Team

335 | 35

2.19 ГБ

В этой теме нет новых непрочитанных сообщений. Борис Годунов (1986) DVDRip-AVC от New-Team

20 | 5

2.19 ГБ

В этой теме нет новых непрочитанных сообщений. Борис Годунов (1986) DVDRip

204 | 5

1.37 ГБ

В этой теме нет новых непрочитанных сообщений. Борис Годунов (2011) DVDRip | Лицензия

165 | 4

748.98 МБ

В этой теме нет новых непрочитанных сообщений. Борис Годунов (2011) DVDRip | Лицензия

55 | 3

1.37 ГБ

В этой теме нет новых непрочитанных сообщений. Борис Годунов (2011) DVDRip от КинозалSAT

17 | 5

1.46 ГБ

В этой теме нет новых непрочитанных сообщений. Борис Годунов (2011) DVD9

4 | 2

7.26 ГБ




Вы не можете начинать темы
Вы не можете отвечать на сообщения
Вы не можете редактировать свои сообщения
Вы не можете удалять свои сообщения
Вы не можете добавлять вложения

Перейти:  
Для Мосгорсуда, Роскомнадзора и рекламодателей: mosgorsud-torrent[собачка]yandex.ru
 Вход
ppkBB3cker v.2 © 2008-2014 @ PPK
[ Time : 0.057s | 15 Queries | GZIP : Off ]

Торрент трекер RUTOR.IN, Не можете зайти на rutor.org? Какой новый адрес рутор? Какое зеркало рутор? Не работает rutor.org и зеркала? Тогда наш торрент специально для вас. Rutor.in неофициальное зеркало rutor. В случае если у Вас заблокирован rutor или вдруг Вы не можете на него зайти, то Вы без труда сможете скачать бесплатно и без рекламы последние новинки кино, игр, сериалов и прочего у нас, на Rutor.in. Не нужно использовать прокси, чтобы зайти на рутор, достаточно воспользоваться нашим ресурсом. Все новые фильмы, игры, сериалы, книги и музыка за 2013 и 2014 годы через торрент бесплатно. Скачивайте фильмы в хорошем качестве, игры для пк, xbox, playstation без регистрации. У нас вы найдете новые Зарубежные сериалы и Русские сериалы 2013, 2014, 2015 годов. Оставайтесь с нами, качайте любимые фильмы, игры, сериалы, книги и музыку.