img image001 image001 image001 image001 image001 image001 image001 image001 image001 image001 image001 image001 image001 image001 image001

Planets Sun Sun Sun
Статистика раздачи
Автор: Nickolas3434 | Размер: 2.19 ГБ | Добавлен: 24 фев 2014
Раздают: 20    Качают: 5
Скачать торрент
Скачать торрент
Описание торрента

СообщениеДобавлено: 24 фев 2014 

Страна: СССР, Польша, Чехословакия, Германия (ФРГ)
Производство: Allianz Filmproduktion, Filmové Studio Barrandov, Мосфильм, Zepoli Filmove

Жанр: приключения
Год выпуска: 1986
Продолжительность: 02:19:26 (01:10:35 + 01:08:51)

Перевод: не требуется
Оригинальная аудиодорожка: русский
Cубтитры: нет

Режиссер: Сергей Бондарчук

В ролях:
Сергей Бондарчук, Александр Соловьев, Анатолий Ромашин, Анатолий Васильев (II), Адриана Беджиньска, Евгений Самойлов, Роман Филиппов, Вячеслав Бутенко, Алена Бондарчук, Геннадий Митрофанов, Валерий Сторожик, Юрий Лазарев, Владимир Седов, Георгий Бурков, Вадим Александров, Ирина Скобцева, Кира Головко, Людмила Коршакова, Федор Бондарчук, Хенек Махалица, Ольгерд Лукашевич, Мариан Дженджель, Владимир Новиков, Виктор Яковлев, Олег Михайлов, Борис Химичев, Александр Титоренко, Норберт Кухинке, Виктор Смирнов, Юрий Шерстнев, Владимир Ферапонтов, Юра Матюхин, Валерий Шептекита, Галина Демина, Иван Лапиков, Николай Ерофеев, Александр Сайко, Владислав Комар...

Описание:
По одноименной пьесе А. С. Пушкина. Действие происходит в конце XVI века, накануне «смутного времени». Главное действующее лицо этой исторической трагедии — русский царь Борис Годунов, взошедший на престол вслед за Иваном Грозным после трагических событий: смерти старшего сына Грозного Федора и гибели юного царевича Димитрия…





Исходник: DVD9 R5
Тип релиза: DVDRip-AVC
Контейнер: MKV

Видео: 720->768x572 (4:3), 25 fps, H264 ~ 1794 kbps avg, 0.174 bit/pixel
Аудио: 48 kHz, Dolby Digital AC3 5.1, 448 kbps

Раздача от:
Общее
Полное имя : Boris.Godunov.1986.DVDRip-AVC_[New-team]_by_AVP_Studio\02.mkv
Формат : Matroska
Версия формата : Version 2
Размер файла : 1,08 Гбайт
Продолжительность : 1 ч. 8 м.
Общий поток : 2243 Кбит/сек
Дата кодирования : UTC 2014-02-23 09:00:53
Программа кодирования : mkvmerge v6.1.0 ('Old Devil') built on Mar 4 2013 09:10:42
Библиотека кодирования : libebml v1.3.0 + libmatroska v1.4.0

Видео
Идентификатор : 1
Формат : AVC
Формат/Информация : Advanced Video Codec
Профиль формата : High@L4.1
Параметр CABAC формата : Да
Параметр ReFrames формата : 8 кадров
Идентификатор кодека : V_MPEG4/ISO/AVC
Продолжительность : 1 ч. 8 м.
Битрейт : 1794 Кбит/сек
Ширина : 720 пикселей
Высота : 572 пикселя
Соотношение сторон : 4:3
Режим частоты кадров : Постоянный
Частота кадров : 25,000 кадров/сек
Цветовое пространство : YUV
Субдискретизация насыщенности : 4:2:0
Битовая глубина : 8 бит
Тип развёртки : Прогрессивная
Бит/(Пиксели*Кадры) : 0.174
Размер потока : 862 Мбайт (78%)
Библиотека кодирования : x264 core 138 r2356 a1d3d17
Настройки программы : cabac=1 / ref=8 / deblock=1:-2:-1 / analyse=0x3:0x113 / me=umh / subme=10 / psy=1 / psy_rd=1.00:0.05 / mixed_ref=1 / me_range=32 / chroma_me=1 / trellis=2 / 8x8dct=1 / cqm=0 / deadzone=21,11 / fast_pskip=0 / chroma_qp_offset=-3 / threads=3 / lookahead_threads=1 / sliced_threads=0 / nr=0 / decimate=0 / interlaced=0 / bluray_compat=0 / constrained_intra=0 / bframes=8 / b_pyramid=2 / b_adapt=2 / b_bias=0 / direct=3 / weightb=1 / open_gop=0 / weightp=2 / keyint=250 / keyint_min=25 / scenecut=40 / intra_refresh=0 / rc=2pass / mbtree=0 / bitrate=1794 / ratetol=1.0 / qcomp=0.60 / qpmin=0 / qpmax=69 / qpstep=4 / cplxblur=20.0 / qblur=0.5 / ip_ratio=1.40 / pb_ratio=1.30 / aq=1:1.00
Default : Да
Forced : Нет

Аудио
Идентификатор : 2
Формат : AC-3
Формат/Информация : Audio Coding 3
Расширение режима : CM (complete main)
Параметр Endianness формата : Big
Идентификатор кодека : A_AC3
Продолжительность : 1 ч. 8 м.
Вид битрейта : Постоянный
Битрейт : 448 Кбит/сек
Каналы : 6 каналов
Расположение каналов : Front: L C R, Side: L R, LFE
Частота : 48,0 КГц
Битовая глубина : 16 бит
Метод сжатия : С потерями
Размер потока : 221 Мбайт (20%)
Default : Да
Forced : Нет



«Борис Годунов» — последний фильм Сергея Бондарчука, который вышел на экраны при его жизни.



   Похожие торренты   Торрент   Размер 
В этой теме нет новых непрочитанных сообщений. Борис Годунов (1986) DVDRip от New-Team

49 | 16

1.46 ГБ

В этой теме нет новых непрочитанных сообщений. Борис Годунов (1986) DVDRip от New-Team

335 | 35

2.19 ГБ

В этой теме нет новых непрочитанных сообщений. Борис Годунов (1986) DVDRip

204 | 5

1.37 ГБ

В этой теме нет новых непрочитанных сообщений. Борис Годунов (2011) DVDRip от КинозалSAT

17 | 5

1.46 ГБ

В этой теме нет новых непрочитанных сообщений. Борис Годунов (2011) DVDRip | Лицензия

55 | 3

1.37 ГБ

В этой теме нет новых непрочитанных сообщений. Борис Годунов (2011) DVDRip | Лицензия

165 | 4

748.98 МБ

В этой теме нет новых непрочитанных сообщений. Борис Годунов (2011) DVD9

4 | 2

7.26 ГБ




Вы не можете начинать темы
Вы не можете отвечать на сообщения
Вы не можете редактировать свои сообщения
Вы не можете удалять свои сообщения
Вы не можете добавлять вложения

Перейти:  
Для Мосгорсуда, Роскомнадзора и рекламодателей: mosgorsud-torrent[собачка]yandex.ru
 Вход
ppkBB3cker v.2 © 2008-2014 @ PPK
[ Time : 0.043s | 16 Queries | GZIP : Off ]

Торрент трекер RUTOR.IN, Не можете зайти на rutor.org? Какой новый адрес рутор? Какое зеркало рутор? Не работает rutor.org и зеркала? Тогда наш торрент специально для вас. Rutor.in неофициальное зеркало rutor. В случае если у Вас заблокирован rutor или вдруг Вы не можете на него зайти, то Вы без труда сможете скачать бесплатно и без рекламы последние новинки кино, игр, сериалов и прочего у нас, на Rutor.in. Не нужно использовать прокси, чтобы зайти на рутор, достаточно воспользоваться нашим ресурсом. Все новые фильмы, игры, сериалы, книги и музыка за 2013 и 2014 годы через торрент бесплатно. Скачивайте фильмы в хорошем качестве, игры для пк, xbox, playstation без регистрации. У нас вы найдете новые Зарубежные сериалы и Русские сериалы 2013, 2014, 2015 годов. Оставайтесь с нами, качайте любимые фильмы, игры, сериалы, книги и музыку.