img image001 image001 image001 image001 image001 image001 image001 image001 image001 image001 image001 image001 image001 image001 image001

Planets Sun Sun Sun
Статистика раздачи
Автор: Nickolas3434 | Размер: 1.29 ГБ | Добавлен: 24 фев 2014
Раздают: 84    Качают: 30
Скачать торрент
Скачать торрент
Описание торрента

СообщениеДобавлено: 24 фев 2014 

Информация о фильме
Оригинальное название: Васильки для Василисы
Год выхода: 2012
Жанр: Мелодрама
Режиссер: Владимир Устюгов
В ролях: Григорий Антипенко, Карина Андоленко, Галина Петрова, Юлия Галкина, Сергей Апрельский, Андрей Фомин, Федя Смирнов, Владимир Терещенко, Владимир Чуприков

О фильме:
Василиса Демина - глава клиентского отдела в клинике пластической хирургии. Уже несколько лет она живет с главврачом этой клиники Алексеем Григорьевичем, надеясь на то, что однажды они станут настоящей семьей. Но пока и в карьере, и в личной жизни все складывается не так, как ей хотелось бы. После конфликта с Алексеем, Василиса уходит от него и увольняется из клиники. Она очень рассчитывает на свою квартиру, которую сдает через агентство, но жильцы не торопятся съезжать по первому требованию. Так в своей большой квартире ей приходится довольствоваться одной комнатой. А в соседях у нее оказывается Василий, его восьмилетний сын от первого брака и жена, красавица-модель Алена. Василий любит жену и готов исполнять все ее прихоти. А она, недовольная тем, что муж оставил денежную работу ради творчества, втайне занимается поиском лучшей партии для себя...


Страна: Россия
Студия: АМЕДИА
Продолжительность: 01:33:49

Файл
Качество: DVB
Видео: MPEG-2, 1745 Кбит/с, 704x576@768x576
Звук: Русский (MP2, 2 ch, 128 Кбит/с)

Семпл


Общее
Полное имя : Vasilki.dlja.Vasilisy.2012.DVB.MediaClub.ts
Формат : MPEG-TS
Профиль формата : No PAT/PMT
Размер файла : 1,29 Гбайт
Продолжительность : 1 ч. 33 м.
Общий поток : 1972 Кбит/сек

Видео
Идентификатор : 204 (0xCC)
Формат : AVC
Формат/Информация : Advanced Video Codec
Профиль формата : High@L3.0
Параметр CABAC формата : Да
Параметр ReFrames формата : 3 кадра
Продолжительность : 1 ч. 33 м.
Битрейт : 1745 Кбит/сек
Ширина : 704 пикселя
Высота : 576 пикселей
Соотношение сторон : 4:3
Частота кадров : 25,000 кадров/сек
Стандарт вещания : Component
Цветовое пространство : YUV
Субдискретизация насыщенности : 4:2:0
Битовая глубина : 8 бит
Тип развёртки : Чересстрочная
Порядок развёртки : Верхнее поле первое
Бит/(Пиксели*Кадры) : 0.172
Размер потока : 1,14 Гбайт (88%)
Основные цвета : BT.601 PAL
Характеристики трансфера : BT.470 System B, BT.470 System G
Коэффициенты матрицы : BT.601

Аудио
Идентификатор : 304 (0x130)
Формат : MPEG Audio
Версия формата : Version 1
Профиль формата : Layer 2
Продолжительность : 1 ч. 33 м.
Вид битрейта : Постоянный
Битрейт : 128 Кбит/сек
Каналы : 2 канала
Частота : 48,0 КГц
Метод сжатия : С потерями
Задержка видео : -904 мс.
Размер потока : 85,9 Мбайт (6%)


Релиз от:



   Похожие торренты   Торрент   Размер 
В этой теме нет новых непрочитанных сообщений. Васильки для Василисы (2012) SATRip

70 | 4

1.39 ГБ

В этой теме нет новых непрочитанных сообщений. Иван Царевич: Свадьба Василисы (2012) PC | Лицензия

134 | 14

609.14 МБ

В этой теме нет новых непрочитанных сообщений. Иван Царевич: Свадьба Василисы (2011) PC | RePack от R.G. UniGamers

86 | 4

485.04 МБ

В этой теме нет новых непрочитанных сообщений. Васильки [01-04 из 04] (2013) DVB от Getty

6 | 8

5.96 ГБ

В этой теме нет новых непрочитанных сообщений. Васильки [01-02 из 02] (2013) HDTVRip 720p

4 | 3

7.25 ГБ

В этой теме нет новых непрочитанных сообщений. Васильки [01-04 из 04] (2013) SATRip от Files-x

240 | 21

2.31 ГБ

В этой теме нет новых непрочитанных сообщений. Васильки [01-04 из 04] (2013) WEB-DLRip-AVC от Files-x

127 | 19

2.3 ГБ




Вы не можете начинать темы
Вы не можете отвечать на сообщения
Вы не можете редактировать свои сообщения
Вы не можете удалять свои сообщения
Вы не можете добавлять вложения

Перейти:  
Для Мосгорсуда, Роскомнадзора и рекламодателей: mosgorsud-torrent[собачка]yandex.ru
 Вход
ppkBB3cker v.2 © 2008-2014 @ PPK
[ Time : 0.061s | 15 Queries | GZIP : Off ]

Торрент трекер RUTOR.IN, Не можете зайти на rutor.org? Какой новый адрес рутор? Какое зеркало рутор? Не работает rutor.org и зеркала? Тогда наш торрент специально для вас. Rutor.in неофициальное зеркало rutor. В случае если у Вас заблокирован rutor или вдруг Вы не можете на него зайти, то Вы без труда сможете скачать бесплатно и без рекламы последние новинки кино, игр, сериалов и прочего у нас, на Rutor.in. Не нужно использовать прокси, чтобы зайти на рутор, достаточно воспользоваться нашим ресурсом. Все новые фильмы, игры, сериалы, книги и музыка за 2013 и 2014 годы через торрент бесплатно. Скачивайте фильмы в хорошем качестве, игры для пк, xbox, playstation без регистрации. У нас вы найдете новые Зарубежные сериалы и Русские сериалы 2013, 2014, 2015 годов. Оставайтесь с нами, качайте любимые фильмы, игры, сериалы, книги и музыку.