img image001 image001 image001 image001 image001 image001 image001 image001 image001 image001 image001 image001 image001 image001 image001

Planets Sun Sun Sun
Статистика раздачи
Автор: Nickolas3434 | Размер: 744.84 МБ | Добавлен: 26 фев 2014
Раздают: 3    Качают: 2
Скачать торрент
Скачать торрент
Описание торрента

СообщениеДобавлено: 26 фев 2014 

Страна: CCCP
Производство: Ленфильм

Жанр: драма, военный
Год выпуска: 1986
Продолжительность: 01:15:42

Перевод: не требуется
Оригинальная аудиодорожка: русский
Cубтитры: нет

Режиссер: Наталия Трощенко

В ролях:
Вера Глаголева, Александр Абдулов, Елена Попова, Юрий Беляев, Кирилл Алексеев, Олег Меленевский, Николай Иванов, Виктор Костецкий, Сергей Иванов, Л.Грищенко, Н.Клименко, Ю.Криливец...


После войны жизнь возвращается в нормальное русло. И двое, Сергей (Абдулов) и Маша (Глаголева), пытаются найти себя в ней. Решают бытовые проблемы, растят сына. Всё как у всех, радости и огорчения. Только с воспоминаниями что-то не так…
В конце фильма действие переносится назад, в военные годы и выясняется главное… — ведь в те трагические дни 1942-го в Аджимушкайских катакомбах не выжил почти никто.





Исходник: DVD5 R5
Тип релиза: DVDRip
Контейнер: AVI

Видео: 704x368 (1,913:1), 25 fps, XviD ~ 1174 kbps avg, 0.181 bit/pixel
Аудио: 48 kHz, Dolby Digital AC3 2.0, 192 kbps

Раздача от:
Общее
Полное имя : Soshedshie.s.nebes.1986.DVDRip_[New-team]_by_AVP_Studio.avi
Формат : AVI
Формат/Информация : Audio Video Interleave
Размер файла : 745 Мбайт
Продолжительность : 1 ч. 15 м.
Общий поток : 1375 Кбит/сек
Программа кодирования : VirtualDubModRus 1.5.10.2 (build 2542/release)
Библиотека кодирования : VirtualDubMod build 2542/release

Видео
Идентификатор : 0
Формат : MPEG-4 Visual
Профиль формата : Advanced Simple@L5
Параметр BVOP формата : 1
Параметр QPel формата : Нет
Параметр GMC формата : Без точки перехода
Параметр матрицы формата : Выборочная
Идентификатор кодека : XVID
Идентификатор кодека/Подсказка : XviD
Продолжительность : 1 ч. 15 м.
Битрейт : 1174 Кбит/сек
Ширина : 704 пикселя
Высота : 368 пикселей
Соотношение сторон : 1,913
Частота кадров : 25,000 кадров/сек
Цветовое пространство : YUV
Субдискретизация насыщенности : 4:2:0
Битовая глубина : 8 бит
Тип развёртки : Прогрессивная
Метод сжатия : С потерями
Бит/(Пиксели*Кадры) : 0.181
Размер потока : 636 Мбайт (85%)
Библиотека кодирования : XviD 73

Аудио
Идентификатор : 1
Формат : AC-3
Формат/Информация : Audio Coding 3
Расширение режима : CM (complete main)
Параметр Endianness формата : Big
Идентификатор кодека : 2000
Продолжительность : 1 ч. 15 м.
Вид битрейта : Постоянный
Битрейт : 192 Кбит/сек
Каналы : 2 канала
Расположение каналов : Front: L R
Частота : 48,0 КГц
Битовая глубина : 16 бит
Метод сжатия : С потерями
Размер потока : 104 Мбайт (14%)
Выравнивание : Разделение по промежуткам
Продолжительность промежутка : 40 мс. (1,00 видеокадр)
Время предзагрузки промежутка : 500 мс





   Похожие торренты   Торрент   Размер 
В этой теме нет новых непрочитанных сообщений. Сошедшие с небес (1986) DVDRip-AVC от New-Team

32 | 12

745.03 МБ

В этой теме нет новых непрочитанных сообщений. Сошедшие с небес (1986) DVDRip от ExKinoRay

51 | 11

1.37 ГБ

В этой теме нет новых непрочитанных сообщений. Сошедшие с небес (1986) VHSRip

2 | 4

701.38 МБ

В этой теме нет новых непрочитанных сообщений. Сошедшие с небес / Рухнувшие небеса / Falling Skies [S03] (2013) WEB-DLRip от New-team | LostFilm

30 | 7

7.19 ГБ

В этой теме нет новых непрочитанных сообщений. Сошедшие с небес / Рухнувшие небеса / Falling Skies [S02] (2012) WEB-DLRip | Sci-Fi

24 | 8

4.4 ГБ

В этой теме нет новых непрочитанных сообщений. Сошедшие с небес / Рухнувшие небеса / Falling Skies [S02] (2011) HDTVRip | Sub

5 | 3

3.38 ГБ

В этой теме нет новых непрочитанных сообщений. Сошедшие с небес / Рухнувшие небеса / Falling Skies [S01] (2011) BDRip | Sci-Fi

62 | 16

4.4 ГБ




Вы не можете начинать темы
Вы не можете отвечать на сообщения
Вы не можете редактировать свои сообщения
Вы не можете удалять свои сообщения
Вы не можете добавлять вложения

Перейти:  
Для Мосгорсуда, Роскомнадзора и рекламодателей: mosgorsud-torrent[собачка]yandex.ru
 Вход
ppkBB3cker v.2 © 2008-2014 @ PPK
[ Time : 0.083s | 17 Queries | GZIP : Off ]

Торрент трекер RUTOR.IN, Не можете зайти на rutor.org? Какой новый адрес рутор? Какое зеркало рутор? Не работает rutor.org и зеркала? Тогда наш торрент специально для вас. Rutor.in неофициальное зеркало rutor. В случае если у Вас заблокирован rutor или вдруг Вы не можете на него зайти, то Вы без труда сможете скачать бесплатно и без рекламы последние новинки кино, игр, сериалов и прочего у нас, на Rutor.in. Не нужно использовать прокси, чтобы зайти на рутор, достаточно воспользоваться нашим ресурсом. Все новые фильмы, игры, сериалы, книги и музыка за 2013 и 2014 годы через торрент бесплатно. Скачивайте фильмы в хорошем качестве, игры для пк, xbox, playstation без регистрации. У нас вы найдете новые Зарубежные сериалы и Русские сериалы 2013, 2014, 2015 годов. Оставайтесь с нами, качайте любимые фильмы, игры, сериалы, книги и музыку.