img image001 image001 image001 image001 image001 image001 image001 image001 image001 image001 image001 image001 image001 image001 image001

Planets Sun Sun Sun
Статистика раздачи
Автор: Nickolas3434 | Размер: 3.85 ГБ | Добавлен: 27 фев 2014
Раздают: 98    Качают: 31
Скачать торрент
Скачать торрент
Описание торрента

СообщениеДобавлено: 27 фев 2014 

Информация о фильме
Название: Параллельные миры
Год выхода: 2013
Жанр: Mелодрама
Режиссер: Ермек Аманшаев
В ролях: Алена Бабенко, Берик Айтжанов, Евгений Стычкин, Дастен Шакиров, Александра Морозова, Арман Асенов, Алия Телебарисова, Бибигуль Суюншалина, Ольга Коржева

О фильме:
Она одинока. Он случайно оказывается на ее балконе. Завязывается разговор, потом танец, потом странная перестановка в комнате — и все в её жизни меняется. Через балкон он нечаянно находит путь к её сердцу, через балкон он уходит, проникнув и изменив всё в глубинах её души.


Страна: Россия, Казахстан
Студия: Eurasia Film Production, Интерфест
Продолжительность: 01:24:30
Перевод: Оригинал (русский) Лицензия

Файл
Кодек: MPEG2
Качество: DVD5 R5
Видео: PAL 16:9 (720x576@1024x576) MPEG Video, 6041 kbps
Звук: Русский: Dolby AC3, 6 ch, 256 kbps

Семпл

Общее
Полное имя : G:Параллельные миры (Ермек Аманшаев) [2013, мелодрама, DVD5] R5Paralleljnye.miry.2013.DVD5VIDEO_TSVTS_02_1.VOB
Формат : MPEG-PS
Размер файла : 1024 Мбайт
Продолжительность : 22 м.
Режим общего битрейта : Переменный
Общий поток : 6425 Кбит/сек

Видео
Идентификатор : 224 (0xE0)
Формат : MPEG Video
Версия формата : Version 2
Профиль формата : Main@Main
Параметр BVOP формата : Да
Параметр матрицы формата : Выборочная
Параметр GOP формата : M=3, N=15
Продолжительность : 22 м.
Вид битрейта : Переменный
Битрейт : 6041 Кбит/сек
Максимальный битрейт : 9000 Кбит/сек
Ширина : 720 пикселей
Высота : 576 пикселей
Соотношение сторон : 16:9
Частота кадров : 25,000 кадров/сек
Стандарт вещания : PAL
Цветовое пространство : YUV
Субдискретизация насыщенности : 4:2:0
Битовая глубина : 8 бит
Тип развёртки : Чересстрочная
Порядок развёртки : Верхнее поле первое
Метод сжатия : С потерями
Бит/(Пиксели*Кадры) : 0.583
Временной код первого кадра : 00:00:15:00
Оригинал временного кода : Group of pictures header
Размер потока : 963 Мбайт (94%)

Аудио
Идентификатор : 189 (0xBD)-128 (0x80)
Формат : AC-3
Формат/Информация : Audio Coding 3
Расширение режима : CM (complete main)
Параметр Endianness формата : Big
Режим смешивания : DVD-Video
Продолжительность : 22 м.
Вид битрейта : Постоянный
Битрейт : 256 Кбит/сек
Каналы : 6 каналов
Расположение каналов : Front: L C R, Side: L R, LFE
Частота : 48,0 КГц
Битовая глубина : 16 бит
Метод сжатия : С потерями
Размер потока : 40,8 Мбайт (4%)



   Похожие торренты   Торрент   Размер 
В этой теме нет новых непрочитанных сообщений. Параллельные миры / Upside Down (2012) DVD5 сжатый | Лицензия

21 | 3

4.37 ГБ

В этой теме нет новых непрочитанных сообщений. Параллельные миры (2013) DVDRip | Лицензия

152 | 11

1.37 ГБ

В этой теме нет новых непрочитанных сообщений. Параллельные миры (2013) DVDRip от Torrange | Лицензия

75 | 4

743.85 МБ

В этой теме нет новых непрочитанных сообщений. Параллельные миры (2013) DVDRip от Sanjar & NeoJet | КПК | Лицензия

20 | 6

271.48 МБ

В этой теме нет новых непрочитанных сообщений. Параллельные миры / Upside Down (2012) Blu-Ray | Лицензия

6 | 2

19.89 ГБ

В этой теме нет новых непрочитанных сообщений. Параллельные миры / Upside Down (2012) BD-Remux | Лицензия

16 | 4

16.71 ГБ

В этой теме нет новых непрочитанных сообщений. Параллельные миры / Upside Down (2012) BDRip от HQCLUB | Лицензия

1968 | 123

2.19 ГБ




Вы не можете начинать темы
Вы не можете отвечать на сообщения
Вы не можете редактировать свои сообщения
Вы не можете удалять свои сообщения
Вы не можете добавлять вложения

Перейти:  
Для Мосгорсуда, Роскомнадзора и рекламодателей: mosgorsud-torrent[собачка]yandex.ru
 Вход
ppkBB3cker v.2 © 2008-2014 @ PPK
[ Time : 0.056s | 15 Queries | GZIP : Off ]

Торрент трекер RUTOR.IN, Не можете зайти на rutor.org? Какой новый адрес рутор? Какое зеркало рутор? Не работает rutor.org и зеркала? Тогда наш торрент специально для вас. Rutor.in неофициальное зеркало rutor. В случае если у Вас заблокирован rutor или вдруг Вы не можете на него зайти, то Вы без труда сможете скачать бесплатно и без рекламы последние новинки кино, игр, сериалов и прочего у нас, на Rutor.in. Не нужно использовать прокси, чтобы зайти на рутор, достаточно воспользоваться нашим ресурсом. Все новые фильмы, игры, сериалы, книги и музыка за 2013 и 2014 годы через торрент бесплатно. Скачивайте фильмы в хорошем качестве, игры для пк, xbox, playstation без регистрации. У нас вы найдете новые Зарубежные сериалы и Русские сериалы 2013, 2014, 2015 годов. Оставайтесь с нами, качайте любимые фильмы, игры, сериалы, книги и музыку.