img image001 image001 image001 image001 image001 image001 image001 image001 image001 image001 image001 image001 image001 image001 image001

Planets Sun Sun Sun
Статистика раздачи
Автор: Nickolas3434 | Размер: 745.76 МБ | Добавлен: 27 фев 2014
Раздают: 67    Качают: 6
Скачать торрент
Скачать торрент
Описание торрента

СообщениеДобавлено: 27 фев 2014 

Страна: СССР
Производство: Одесская киностудия

Жанр: комедия
Год выпуска: 1985
Продолжительность: 01:29:01

Перевод: не требуется
Оригинальная аудиодорожка: русский
Cубтитры: нет

Режиссер: Всеволод Шиловский

В ролях:
Александр Ширвиндт, Софико Чиаурели, Галина Соколова, Игорь Богодух, Лариса Удовиченко, Ольга Кабо, Алексей Яковлев, Анатолий Хостикоев, Елена Аминова, Семен Фарада, Валентин Никулин, Николай Гринько, Леонид Оболенский, Александр Пермяков...

Описание:
В густонаселенных трущобах живет большая, но бедная семья обаятельного и талантливого синьора Леонидо Попогатто. Его жена, синьора Валерия, его дочь Фьерелла и его старшая сестра Матильда, которые битком набиты в небольшой и обшарпанной квартирке на последнем этаже. Семья перебивается мелкими аферами, автор которых сам синьор Попагатто, является режиссером актером в одном лице. Он под видом некого важного лица, проникает на светские приемы и стягивает со стола напитки и угощения. Но в одно прекрасное утро его осенила гениальная идея, как раз и навсегда стать богатыми, и выдать дочь замуж за приличного человека!





Исходник: DVD9
Тип релиза: DVDRip
Контейнер: AVI

Видео: 576x448 (1,286:1), 29,970 fps, XviD ~ 1032 kbps avg, 0.133 bit/pixel
Аудио: 48 kHz, MP3 2.0, 128 kbps

Раздача от:
Общее
Полное имя : Million.v.brachnoy.korzine.1985.DVDRip-745_[New-team]_by_AVP_Studio.avi
Формат : AVI
Формат/Информация : Audio Video Interleave
Размер файла : 746 Мбайт
Продолжительность : 1 ч. 29 м.
Общий поток : 1171 Кбит/сек
Программа кодирования : VirtualDubModRus 1.5.10.2 (build 2542/release)
Библиотека кодирования : VirtualDubMod build 2542/release

Видео
Идентификатор : 0
Формат : MPEG-4 Visual
Профиль формата : Advanced Simple@L5
Параметр BVOP формата : 1
Параметр QPel формата : Нет
Параметр GMC формата : Без точки перехода
Параметр матрицы формата : Выборочная
Идентификатор кодека : XVID
Идентификатор кодека/Подсказка : XviD
Продолжительность : 1 ч. 29 м.
Битрейт : 1032 Кбит/сек
Ширина : 576 пикселей
Высота : 448 пикселей
Соотношение сторон : 1,286
Частота кадров : 29,970 кадров/сек
Цветовое пространство : YUV
Субдискретизация насыщенности : 4:2:0
Битовая глубина : 8 бит
Тип развёртки : Прогрессивная
Метод сжатия : С потерями
Бит/(Пиксели*Кадры) : 0.133
Размер потока : 657 Мбайт (88%)
Библиотека кодирования : XviD 73

Аудио
Идентификатор : 1
Формат : MPEG Audio
Версия формата : Version 1
Профиль формата : Layer 3
Идентификатор кодека : 55
Идентификатор кодека/Подсказка : MP3
Продолжительность : 1 ч. 28 м.
Вид битрейта : Постоянный
Битрейт : 128 Кбит/сек
Каналы : 2 канала
Частота : 48,0 КГц
Метод сжатия : С потерями
Размер потока : 81,4 Мбайт (11%)
Выравнивание : Соединение по промежуткам
Продолжительность промежутка : 33 мс. (1,00 видеокадр)
Время предзагрузки промежутка : 504 мс.
Библиотека кодирования : LAME3.99r
Настройки программы : -m s -V 4 -q 2 -lowpass 17 -b 128





   Похожие торренты   Торрент   Размер 
В этой теме нет новых непрочитанных сообщений. Миллион в брачной корзине (1985) DVDRip-AVC от New-Team

39 | 10

1.46 ГБ

В этой теме нет новых непрочитанных сообщений. Миллион в брачной корзине (1985) DVDRip от New-Team

44 | 23

1.46 ГБ

В этой теме нет новых непрочитанных сообщений. Миллион в брачной корзине (1986) DVDRip

105 | 3

1.37 ГБ

В этой теме нет новых непрочитанных сообщений. Одиночное плавание (1985) DVDRip-AVC от New-Team

256 | 21

1.46 ГБ

В этой теме нет новых непрочитанных сообщений. Тайная прогулка (1985) DVDRip от New-Team

23 | 5

743.19 МБ

В этой теме нет новых непрочитанных сообщений. Доктор Айболит (1985) DVDRip-AVC от New-Team

315 | 15

1.09 ГБ

В этой теме нет новых непрочитанных сообщений. Доктор Айболит (1985) DVDRip от New-Team

108 | 16

744.44 МБ




Вы не можете начинать темы
Вы не можете отвечать на сообщения
Вы не можете редактировать свои сообщения
Вы не можете удалять свои сообщения
Вы не можете добавлять вложения

Перейти:  
Для Мосгорсуда, Роскомнадзора и рекламодателей: mosgorsud-torrent[собачка]yandex.ru
 Вход
ppkBB3cker v.2 © 2008-2014 @ PPK
[ Time : 0.033s | 15 Queries | GZIP : Off ]

Торрент трекер RUTOR.IN, Не можете зайти на rutor.org? Какой новый адрес рутор? Какое зеркало рутор? Не работает rutor.org и зеркала? Тогда наш торрент специально для вас. Rutor.in неофициальное зеркало rutor. В случае если у Вас заблокирован rutor или вдруг Вы не можете на него зайти, то Вы без труда сможете скачать бесплатно и без рекламы последние новинки кино, игр, сериалов и прочего у нас, на Rutor.in. Не нужно использовать прокси, чтобы зайти на рутор, достаточно воспользоваться нашим ресурсом. Все новые фильмы, игры, сериалы, книги и музыка за 2013 и 2014 годы через торрент бесплатно. Скачивайте фильмы в хорошем качестве, игры для пк, xbox, playstation без регистрации. У нас вы найдете новые Зарубежные сериалы и Русские сериалы 2013, 2014, 2015 годов. Оставайтесь с нами, качайте любимые фильмы, игры, сериалы, книги и музыку.