img image001 image001 image001 image001 image001 image001 image001 image001 image001 image001 image001 image001 image001 image001 image001

Planets Sun Sun Sun
Статистика раздачи
Автор: Nickolas3434 | Размер: 1.46 ГБ | Добавлен: 28 фев 2014, 01:04
Раздают: 2    Качают: 12
Скачать торрент
Скачать торрент
Описание торрента

СообщениеДобавлено: 28 фев 2014, 01:04 

Страна: CCCP
Производство: Студия Горького

Жанр: боевик, криминал
Год выпуска: 1986
Продолжительность: 01:23:04

Перевод: не требуется
Оригинальная аудиодорожка: русский
Cубтитры: нет

Режиссер: Борис Григорьев

В ролях:
Александр Тимошкин, Евгений Леонов-Гладышев, Михаил Жигалов, Марина Яковлева, Владимир Стеклов, Георгий Юматов, Юрий Катин-Ярцев, Георгий Дрозд, Марина Левтова, Владимир Сичкарь, Ян Янакиев, Алексей Локтев...


Зимой 1945 года фронтовой разведчик Юрий Соснин, получив контузию, оказывается в госпитале. Сочтя его погибшим, Юрия наградили посмертно. После выписки герой, утратив память, стал работать шофером. Узнав о его судьбе, жулики вовлекают Юрия в свою шайку, и принуждают угнать машину. Но сотрудник милиции, узнав в Юрии своего однополчанина, помогает ему восстановить прошлое и затем привлекает к участию в операции по уничтожению банды…





Исходник: DVD5 R5
Тип релиза: DVDRip
Контейнер: AVI

Видео: 688x384 (16:9), 25 fps, XviD ~ 2309 kbps avg, 0.350 bit/pixel
Аудио: 48 kHz, Dolby Digital AC3 2.0, 192 kbps

Раздача от:
Общее
Полное имя : Nagradit.posmertno.1986.DVDRip_[New-team]_by_AVP_Studio.avi
Формат : AVI
Формат/Информация : Audio Video Interleave
Размер файла : 1,46 Гбайт
Продолжительность : 1 ч. 23 м.
Общий поток : 2511 Кбит/сек
Программа кодирования : VirtualDubModRus 1.5.10.2 (build 2542/release)
Библиотека кодирования : VirtualDubMod build 2542/release

Видео
Идентификатор : 0
Формат : MPEG-4 Visual
Профиль формата : Advanced Simple@L5
Параметр BVOP формата : 1
Параметр QPel формата : Нет
Параметр GMC формата : Без точки перехода
Параметр матрицы формата : Выборочная
Идентификатор кодека : XVID
Идентификатор кодека/Подсказка : XviD
Продолжительность : 1 ч. 23 м.
Битрейт : 2309 Кбит/сек
Ширина : 688 пикселей
Высота : 384 пикселя
Соотношение сторон : 16:9
Частота кадров : 25,000 кадров/сек
Цветовое пространство : YUV
Субдискретизация насыщенности : 4:2:0
Битовая глубина : 8 бит
Тип развёртки : Прогрессивная
Метод сжатия : С потерями
Бит/(Пиксели*Кадры) : 0.350
Размер потока : 1,34 Гбайт (92%)
Библиотека кодирования : XviD 73

Аудио
Идентификатор : 1
Формат : AC-3
Формат/Информация : Audio Coding 3
Расширение режима : CM (complete main)
Параметр Endianness формата : Big
Идентификатор кодека : 2000
Продолжительность : 1 ч. 23 м.
Вид битрейта : Постоянный
Битрейт : 192 Кбит/сек
Каналы : 2 канала
Расположение каналов : Front: L R
Частота : 48,0 КГц
Битовая глубина : 16 бит
Метод сжатия : С потерями
Размер потока : 114 Мбайт (8%)
Выравнивание : Разделение по промежуткам
Продолжительность промежутка : 40 мс. (1,00 видеокадр)
Время предзагрузки промежутка : 500 мс





   Похожие торренты   Торрент   Размер 
В этой теме нет новых непрочитанных сообщений. Наградить посмертно (1986) DVDRip-AVC от New-Team

6 | 7

1.46 ГБ

В этой теме нет новых непрочитанных сообщений. Наградить посмертно (1986) DVDRip от New-Team

1 | 4

744.46 МБ

В этой теме нет новых непрочитанных сообщений. Наградить посмертно (1986) DVDRip

2 | 2

1.37 ГБ

В этой теме нет новых непрочитанных сообщений. Перехват (1986) DVDRip от New-Team

32 | 14

745.09 МБ

В этой теме нет новых непрочитанных сообщений. Перехват (1986) DVDRip от New-Team

47 | 31

1.46 ГБ

В этой теме нет новых непрочитанных сообщений. Перехват (1986) DVDRip-AVC от New-Team

99 | 20

1.46 ГБ

В этой теме нет новых непрочитанных сообщений. Покушение на ГОЭЛРО (1986) DVDRip от New-Team

101 | 22

2.91 ГБ




Вы не можете начинать темы
Вы не можете отвечать на сообщения
Вы не можете редактировать свои сообщения
Вы не можете удалять свои сообщения
Вы не можете добавлять вложения

Перейти:  
Для Мосгорсуда, Роскомнадзора и рекламодателей: mosgorsud-torrent[собачка]yandex.ru
Настройки
ppkBB3cker v.2 © 2008-2014 @ PPK
[ Time : 0.738s | 16 Queries | GZIP : Off ]
CGP [Extreme] output time : 0.00054s | 0 Queries | GZIP : Off

Торрент трекер RUTOR.IN, Не можете зайти на rutor.org? Какой новый адрес рутор? Какое зеркало рутор? Не работает rutor.org и зеркала? Тогда наш торрент специально для вас. Rutor.in неофициальное зеркало rutor. В случае если у Вас заблокирован rutor или вдруг Вы не можете на него зайти, то Вы без труда сможете скачать бесплатно и без рекламы последние новинки кино, игр, сериалов и прочего у нас, на Rutor.in. Не нужно использовать прокси, чтобы зайти на рутор, достаточно воспользоваться нашим ресурсом. Все новые фильмы, игры, сериалы, книги и музыка за 2013 и 2014 годы через торрент бесплатно. Скачивайте фильмы в хорошем качестве, игры для пк, xbox, playstation без регистрации. У нас вы найдете новые Зарубежные сериалы и Русские сериалы 2013, 2014, 2015 годов. Оставайтесь с нами, качайте любимые фильмы, игры, сериалы, книги и музыку.