img image001 image001 image001 image001 image001 image001 image001 image001 image001 image001 image001 image001 image001 image001 image001

Planets Sun Sun Sun
Статистика раздачи
Автор: Nickolas3434 | Размер: 744.46 МБ | Добавлен: 28 фев 2014
Раздают: 1    Качают: 5
Скачать торрент
Скачать торрент
Описание торрента

СообщениеДобавлено: 28 фев 2014 

Страна: CCCP
Производство: Студия Горького

Жанр: боевик, криминал
Год выпуска: 1986
Продолжительность: 01:23:04

Перевод: не требуется
Оригинальная аудиодорожка: русский
Cубтитры: нет

Режиссер: Борис Григорьев

В ролях:
Александр Тимошкин, Евгений Леонов-Гладышев, Михаил Жигалов, Марина Яковлева, Владимир Стеклов, Георгий Юматов, Юрий Катин-Ярцев, Георгий Дрозд, Марина Левтова, Владимир Сичкарь, Ян Янакиев, Алексей Локтев...


Зимой 1945 года фронтовой разведчик Юрий Соснин, получив контузию, оказывается в госпитале. Сочтя его погибшим, Юрия наградили посмертно. После выписки герой, утратив память, стал работать шофером. Узнав о его судьбе, жулики вовлекают Юрия в свою шайку, и принуждают угнать машину. Но сотрудник милиции, узнав в Юрии своего однополчанина, помогает ему восстановить прошлое и затем привлекает к участию в операции по уничтожению банды…





Исходник: DVD5 R5
Тип релиза: DVDRip
Контейнер: AVI

Видео: 688x384 (16:9), 25 fps, XviD ~ 1115 kbps avg, 0.169 bit/pixel
Аудио: 48 kHz, MP3 2.0, 128 kbps

Раздача от:
Общее
Полное имя : Nagradit.posmertno.1986.DVDRip-745_[New-team]_by_AVP_Studio.avi
Формат : AVI
Формат/Информация : Audio Video Interleave
Размер файла : 744 Мбайт
Продолжительность : 1 ч. 23 м.
Общий поток : 1253 Кбит/сек
Программа кодирования : VirtualDubModRus 1.5.10.2 (build 2542/release)
Библиотека кодирования : VirtualDubMod build 2542/release

Видео
Идентификатор : 0
Формат : MPEG-4 Visual
Профиль формата : Advanced Simple@L5
Параметр BVOP формата : 1
Параметр QPel формата : Нет
Параметр GMC формата : Без точки перехода
Параметр матрицы формата : Выборочная
Идентификатор кодека : XVID
Идентификатор кодека/Подсказка : XviD
Продолжительность : 1 ч. 23 м.
Битрейт : 1115 Кбит/сек
Ширина : 688 пикселей
Высота : 384 пикселя
Соотношение сторон : 16:9
Частота кадров : 25,000 кадров/сек
Цветовое пространство : YUV
Субдискретизация насыщенности : 4:2:0
Битовая глубина : 8 бит
Тип развёртки : Прогрессивная
Метод сжатия : С потерями
Бит/(Пиксели*Кадры) : 0.169
Размер потока : 663 Мбайт (89%)
Библиотека кодирования : XviD 73

Аудио
Идентификатор : 1
Формат : MPEG Audio
Версия формата : Version 1
Профиль формата : Layer 3
Идентификатор кодека : 55
Идентификатор кодека/Подсказка : MP3
Продолжительность : 1 ч. 23 м.
Вид битрейта : Постоянный
Битрейт : 128 Кбит/сек
Каналы : 2 канала
Частота : 48,0 КГц
Метод сжатия : С потерями
Размер потока : 76,1 Мбайт (10%)
Выравнивание : Соединение по промежуткам
Продолжительность промежутка : 40 мс. (1,00 видеокадр)
Время предзагрузки промежутка : 504 мс.
Библиотека кодирования : LAME3.99r
Настройки программы : -m s -V 4 -q 2 -lowpass 17 -b 128





   Похожие торренты   Торрент   Размер 
В этой теме нет новых непрочитанных сообщений. Наградить посмертно (1986) DVDRip-AVC от New-Team

9 | 7

1.46 ГБ

В этой теме нет новых непрочитанных сообщений. Наградить посмертно (1986) DVDRip от New-Team

3 | 12

1.46 ГБ

В этой теме нет новых непрочитанных сообщений. Наградить посмертно (1986) DVDRip

2 | 2

1.37 ГБ

В этой теме нет новых непрочитанных сообщений. Перехват (1986) DVDRip от New-Team

49 | 29

1.46 ГБ

В этой теме нет новых непрочитанных сообщений. Перехват (1986) DVDRip от New-Team

32 | 14

745.09 МБ

В этой теме нет новых непрочитанных сообщений. Перехват (1986) DVDRip-AVC от New-Team

100 | 18

1.46 ГБ

В этой теме нет новых непрочитанных сообщений. Хорошо сидим! (1986) DVDRip-AVC от New-Team

35 | 4

744.1 МБ




Вы не можете начинать темы
Вы не можете отвечать на сообщения
Вы не можете редактировать свои сообщения
Вы не можете удалять свои сообщения
Вы не можете добавлять вложения

Перейти:  
Для Мосгорсуда, Роскомнадзора и рекламодателей: mosgorsud-torrent[собачка]yandex.ru
 Вход
ppkBB3cker v.2 © 2008-2014 @ PPK
[ Time : 0.029s | 18 Queries | GZIP : Off ]

cron