img image001 image001 image001 image001 image001 image001 image001 image001 image001 image001 image001 image001 image001 image001 image001

Planets Sun Sun Sun
Статистика раздачи
Автор: Nickolas3434 | Размер: 1.09 ГБ | Добавлен: 28 фев 2014
Раздают: 4    Качают: 5
Скачать торрент
Скачать торрент
Описание торрента

СообщениеДобавлено: 28 фев 2014 

Страна: СССР
Производство: Студия Горького

Жанр: фэнтези, семейный
Год выпуска: 1986
Продолжительность: 01:07:28

Перевод: не требуется
Оригинальная аудиодорожка: русский
Cубтитры: нет

Режиссер: Борис Рыцарев

В ролях:
Елена Денисова, Геннадий Фролов, Сергей Николаев, Александр Новиков, Михаил Пуговкин, Татьяна Конюхова, Леонид Куравлёв, Виктор Сергачёв, Лидия Федосеева-Шукшина, Станислав Коренев, Зиновий Гердт...

Описание:
Долгие годы соседствовали две короля: Федот и Амфибрахий. Последний однажды бесследно исчез. И теперь не под силу королеве одной управлять делами, и стало ее государство приходить в упадок. Да и дочь Алена совсем отбилась от рук. Тогда-то и решила матьвыдать ее замуж.
У короля Федота было три Сына: Павел-царевич, Петр-царевич и Иван-царевич, которого все напрасно считай дурачком. Он сумел покорить сердце Алены и, одолев Кащея Бессмертного, освободил из плена короля Амфибрахия...





Исходник: DVD9 R5
Тип релиза: DVDRip
Контейнер: AVI

Видео: 688x512 (4:3), 25 fps, XviD ~ 1863 kbps avg, 0.212 bit/pixel
Аудио: 48 kHz, Dolby Digital AC3 5.1, 448 kbps

Раздача от:
Общее
Полное имя : Na.zlatom.krylce.sideli.1986.DVDRip_[New-team]_by_AVP_Studio.avi
Формат : AVI
Формат/Информация : Audio Video Interleave
Размер файла : 1,09 Гбайт
Продолжительность : 1 ч. 7 м.
Общий поток : 2316 Кбит/сек
Программа кодирования : VirtualDubModRus 1.5.10.2 (build 2542/release)
Библиотека кодирования : VirtualDubMod build 2542/release

Видео
Идентификатор : 0
Формат : MPEG-4 Visual
Профиль формата : Advanced Simple@L5
Параметр BVOP формата : 1
Параметр QPel формата : Нет
Параметр GMC формата : Без точки перехода
Параметр матрицы формата : Выборочная
Идентификатор кодека : XVID
Идентификатор кодека/Подсказка : XviD
Продолжительность : 1 ч. 7 м.
Битрейт : 1858 Кбит/сек
Ширина : 688 пикселей
Высота : 512 пикселей
Соотношение сторон : 4:3
Частота кадров : 25,000 кадров/сек
Цветовое пространство : YUV
Субдискретизация насыщенности : 4:2:0
Битовая глубина : 8 бит
Тип развёртки : Прогрессивная
Метод сжатия : С потерями
Бит/(Пиксели*Кадры) : 0.211
Размер потока : 897 Мбайт (80%)
Библиотека кодирования : XviD 73

Аудио
Идентификатор : 1
Формат : AC-3
Формат/Информация : Audio Coding 3
Расширение режима : CM (complete main)
Параметр Endianness формата : Big
Идентификатор кодека : 2000
Продолжительность : 1 ч. 7 м.
Вид битрейта : Постоянный
Битрейт : 448 Кбит/сек
Каналы : 6 каналов
Расположение каналов : Front: L C R, Side: L R, LFE
Частота : 48,0 КГц
Битовая глубина : 16 бит
Метод сжатия : С потерями
Размер потока : 216 Мбайт (19%)
Выравнивание : Разделение по промежуткам
Продолжительность промежутка : 40 мс. (1,00 видеокадр)
Время предзагрузки промежутка : 500 мс



В сцене у морского царя пародируется знаменитая ария Кончака из оперы А.Бородина «Князь Игорь»
Сказочная обстановка соседствует с современностью (на момент съёмки): царь Федот печатает свои указы на пишущей машинке, Кащей заправляет Змея Горыныча реактивным топливом и др.



   Похожие торренты   Торрент   Размер 
В этой теме нет новых непрочитанных сообщений. На златом крыльце сидели (1986) DVDRip-AVC от New-Team

45 | 7

1.09 ГБ

В этой теме нет новых непрочитанных сообщений. На златом крыльце сидели (1986) DVDRip от New-Team

11 | 5

743.92 МБ

В этой теме нет новых непрочитанных сообщений. На златом крыльце сидели... (1986) DVDRip

33 | 8

1.37 ГБ

В этой теме нет новых непрочитанных сообщений. На златом крыльце сидели... 3D (1986) VHSRip | 3D-video

6 | 3

1.49 ГБ

В этой теме нет новых непрочитанных сообщений. Перехват (1986) DVDRip от New-Team

47 | 31

1.46 ГБ

В этой теме нет новых непрочитанных сообщений. Перехват (1986) DVDRip от New-Team

32 | 14

745.09 МБ

В этой теме нет новых непрочитанных сообщений. Перехват (1986) DVDRip-AVC от New-Team

99 | 20

1.46 ГБ




Вы не можете начинать темы
Вы не можете отвечать на сообщения
Вы не можете редактировать свои сообщения
Вы не можете удалять свои сообщения
Вы не можете добавлять вложения

Перейти:  
Для Мосгорсуда, Роскомнадзора и рекламодателей: mosgorsud-torrent[собачка]yandex.ru
 Вход
ppkBB3cker v.2 © 2008-2014 @ PPK
[ Time : 0.166s | 15 Queries | GZIP : Off ]

Торрент трекер RUTOR.IN, Не можете зайти на rutor.org? Какой новый адрес рутор? Какое зеркало рутор? Не работает rutor.org и зеркала? Тогда наш торрент специально для вас. Rutor.in неофициальное зеркало rutor. В случае если у Вас заблокирован rutor или вдруг Вы не можете на него зайти, то Вы без труда сможете скачать бесплатно и без рекламы последние новинки кино, игр, сериалов и прочего у нас, на Rutor.in. Не нужно использовать прокси, чтобы зайти на рутор, достаточно воспользоваться нашим ресурсом. Все новые фильмы, игры, сериалы, книги и музыка за 2013 и 2014 годы через торрент бесплатно. Скачивайте фильмы в хорошем качестве, игры для пк, xbox, playstation без регистрации. У нас вы найдете новые Зарубежные сериалы и Русские сериалы 2013, 2014, 2015 годов. Оставайтесь с нами, качайте любимые фильмы, игры, сериалы, книги и музыку.