img image001 image001 image001 image001 image001 image001 image001 image001 image001 image001 image001 image001 image001 image001 image001

Planets Sun Sun Sun
Статистика раздачи
Автор: Nickolas3434 | Размер: 2.44 ГБ | Добавлен: 02 мар 2014
Раздают: 14    Качают: 11
Скачать торрент
Скачать торрент
Описание торрента

СообщениеДобавлено: 02 мар 2014 

Страна: СССР
Производство: Мосфильм

Жанр: драма, военный
Год выпуска: 1962
Продолжительность: 01:35:13

Перевод: не требуется
Оригинальная аудиодорожка: русский
Cубтитры: русский, английский

Режиссер: Андрей Тарковский

В ролях:
Николай Бурляев (Иван), Валентин Зубков (капитан Холин), Евгений Жариков (лейтенант Гальцев), Степан Крылов (Катасонов), Николай Гринько (Грязнов), Дмитрий Милютенко (старик), Валентина Малявина (Маша), Ирина Тарковская (мать Ивана), Андрей Кончаловский (солдат), Иван Савкин, Владимир Маренков, Вера Митурич (девочка)


Описание: ...Детство 12-летнего Ивана закончилось в тот день, когда у него на глазах фашисты расстреляли мать и сестренку. Отец мальчика погиб на фронте. Оставшись сиротой, Иван уходит в воинскую часть и становится неуловимым разведчиком.
Он с риском для жизни добывает для командования бесценные сведения о противнике. Но война есть война...







Исходник: BDRemux 1080p
Тип релиза: BDRip 720p
Контейнер: MKV

Видео: AVC, 960x720 (4:3), 23.976 fps, 3093 Kbps 0.187 bit/pixel
Аудио: AC-3, 48.0 KHz, 6 ch, 448 Kbps, CBR с DVD5
Аудио: MP3, 48.0 KHz, 1 ch, 128 Kbps, CBR Оригинальный
Оригинальная навигация по главам: есть
Субтитры: SoftSub (srt)

Раздача от:
Общее
Полное имя : Ivanovo.detstvo.1962.BDRip720p_[New-team]_by_AVP_Studio.mkv
Формат : Matroska
Версия формата : Version 4 / Version 2
Размер файла : 2,44 Гбайт
Продолжительность : 1 ч. 35 м.
Общий поток : 3673 Кбит/сек
Название фильма : Ivanovo.detstvo.1962.BDRip720p_[New-team]_by_AVP_Studio
Дата кодирования : UTC 2014-03-01 06:26:59
Программа кодирования : mkvmerge v6.7.0 ('Back to the Ground') 64bit built on Jan 8 2014 15:10:52
Библиотека кодирования : libebml v1.3.0 + libmatroska v1.4.1

Видео
Идентификатор : 1
Формат : AVC
Формат/Информация : Advanced Video Codec
Профиль формата : High@L4.1
Параметр CABAC формата : Да
Параметр ReFrames формата : 6 кадров
Идентификатор кодека : V_MPEG4/ISO/AVC
Продолжительность : 1 ч. 35 м.
Битрейт : 3093 Кбит/сек
Ширина : 960 пикселей
Высота : 720 пикселей
Соотношение сторон : 4:3
Режим частоты кадров : Постоянный
Частота кадров : 23,976 кадра/сек
Цветовое пространство : YUV
Субдискретизация насыщенности : 4:2:0
Битовая глубина : 8 бит
Тип развёртки : Прогрессивная
Бит/(Пиксели*Кадры) : 0.187
Размер потока : 2,01 Гбайт (82%)
Заголовок : Источник BDRemux
Библиотека кодирования : x264 core 138 r2356 a1d3d17
Настройки программы : cabac=1 / ref=6 / deblock=1:-3:-3 / analyse=0x3:0x133 / me=umh / subme=10 / psy=1 / psy_rd=1.00:0.05 / mixed_ref=1 / me_range=32 / chroma_me=1 / trellis=2 / 8x8dct=1 / cqm=0 / deadzone=21,11 / fast_pskip=0 / chroma_qp_offset=-3 / threads=3 / lookahead_threads=1 / sliced_threads=0 / nr=0 / decimate=0 / interlaced=0 / bluray_compat=0 / constrained_intra=0 / bframes=8 / b_pyramid=2 / b_adapt=2 / b_bias=0 / direct=3 / weightb=1 / open_gop=0 / weightp=2 / keyint=240 / keyint_min=24 / scenecut=40 / intra_refresh=0 / rc=2pass / mbtree=0 / bitrate=3093 / ratetol=1.0 / qcomp=0.60 / qpmin=0 / qpmax=69 / qpstep=4 / cplxblur=20.0 / qblur=0.5 / ip_ratio=1.40 / pb_ratio=1.30 / aq=1:1.00
Язык : Russian
Default : Да
Forced : Нет

Аудио #1
Идентификатор : 2
Формат : AC-3
Формат/Информация : Audio Coding 3
Расширение режима : CM (complete main)
Параметр Endianness формата : Big
Идентификатор кодека : A_AC3
Продолжительность : 1 ч. 35 м.
Вид битрейта : Постоянный
Битрейт : 448 Кбит/сек
Каналы : 6 каналов
Расположение каналов : Front: L C R, Side: L R, LFE
Частота : 48,0 КГц
Битовая глубина : 16 бит
Метод сжатия : С потерями
Размер потока : 305 Мбайт (12%)
Заголовок : Источник DVD Dolby Digital 5,1 448kb
Язык : Russian
Default : Да
Forced : Нет

Аудио #2
Идентификатор : 3
Формат : MPEG Audio
Версия формата : Version 1
Профиль формата : Layer 3
Идентификатор кодека : A_MPEG/L3
Идентификатор кодека/Подсказка : MP3
Продолжительность : 1 ч. 35 м.
Вид битрейта : Постоянный
Битрейт : 128 Кбит/сек
Каналы : 1 канал
Частота : 48,0 КГц
Метод сжатия : С потерями
Размер потока : 87,2 Мбайт (3%)
Заголовок : Источник BDRemux Dolby Digital 1,0 128kb
Язык : Russian
Default : Нет
Forced : Нет

Текст #1
Идентификатор : 4
Формат : UTF-8
Идентификатор кодека : S_TEXT/UTF8
Идентификатор кодека/Информация : UTF-8 Plain Text
Заголовок : Источник BDRemux SoftSub (srt)
Язык : Russian
Default : Нет
Forced : Нет

Текст #2
Идентификатор : 5
Формат : UTF-8
Идентификатор кодека : S_TEXT/UTF8
Идентификатор кодека/Информация : UTF-8 Plain Text
Заголовок : Источник BDRemux SoftSub (srt)
Язык : English
Default : Нет
Forced : Нет

Меню
00:00:00.000 : en:Obscured
00:06:08.159 : en:Codes
00:14:59.565 : en:Reunited
00:21:38.588 : en:Orders
00:25:02.459 : en:Alone
00:31:59.125 : en:Masha
00:40:33.722 : en:Signs
00:44:53.065 : en:Fragments
00:51:45.018 : en:Vengeance
00:57:37.620 : en:Shelled
01:00:01.514 : en:Unexpected
01:05:13.200 : en:Necessities
01:10:44.156 : en:Flares
01:20:32.577 : en:Fallen
01:23:05.814 : en:Quiet
01:27:01.674 : en:Identities
01:32:01.849 : en:Family



Рассказ «Иван» был написан Владимиром Богомоловым в 1957 году. Рассказ написан от лица молодого лейтенанта и содержит несколько случайных встреч с двенадцатилетним разведчиком Иваном Бондаревым, все близкие которого погибли, а мать пропала без вести. «Иван» был переведён более чем на двадцать языков и привлёк внимание опытного кинодраматурга Михаила Папавы. Папава написал по нему сценарий, во многом изменив сюжетную линию. В частности, он сделал счастливый финал: в рассказе Иван погибает, в сценарии Папавы Иван в финале появляется в купе поезда в образе военного с беременной женой. «Да будет благословен мир», — произносит Гальцев, который в этой сцене встречается с Иваном, под надпись «конец фильма». Примерно в это же время в «Комсомольской правде» была опубликована статья о юных разведчиках, помогавших армии на Днепре в 1941 году. Она кончалась словами: «Отзовитесь, юные герои!». Богомолов, будучи сам бывшим разведчиком, позвонил в редакцию газеты и узнал, что никто не отозвался: все разведчики погибли. Тогда Богомолов вмешался в написание сценария и был написан новый вариант с оригинальным концом.

Постановку фильма «Иван» сначала доверили режиссёру «Мосфильма» Эдуарду Абалову. Отснятый им материал вызвал резкую критику художественного совета объединения 16 августа и 1 ноября 1960 года. Согласно приказу генерального директора киностудии «Мосфильм» № 466 от 10 декабря 1960 года, работы по фильму «Иван» были прекращены в связи с тем, что материалы, отснятые в экспедиции, признали неудовлетворительными, а их качество посчитали настолько ужасным, что дальнейшее их использование считалось невозможным. Тогдашние затраты по фильму были списаны в убыток. Согласно другому приказу от 16 июня 1961 года, работы по фильму были возобновлены 15 июня 1961 года режиссёром-постановщиком Тарковским, оператором Юсовым и художником-постановщиком Черняевым.

Для двадцатидевятилетнего Андрея Тарковского это был первый полнометражный фильм. Съёмки заняли пять месяцев с экономией 24 тысячи рублей.

Тарковский попросил Владимира Высоцкого попробоваться на роль капитана Холина, но худсовет, просмотрев пробы Высоцкого, решил, что они неудачны. В итоге роль Холина сыграл Валентин Зубков.[3] Известно, что помимо четырнадцатилетнего Николая Бурляева, на главную роль претендовали ещё трое.



   Похожие торренты   Торрент   Размер 
В этой теме нет новых непрочитанных сообщений. Иваново детство (1962) BDRip-AVC от New-Team

10 | 8

1.46 ГБ

В этой теме нет новых непрочитанных сообщений. Иваново детство (1962) BDRip-AVC | iPad | O

4 | 3

1.8 ГБ

В этой теме нет новых непрочитанных сообщений. Иваново детство (1962) BDRip от HQCLUB

381 | 29

1.45 ГБ

В этой теме нет новых непрочитанных сообщений. Иваново детство (1962) BDRip-AVC от MediaClub

17 | 2

2.63 ГБ

В этой теме нет новых непрочитанных сообщений. Иваново детство (1962) BDRip 720p от HQ-ViDEO

264 | 43

6.25 ГБ

В этой теме нет новых непрочитанных сообщений. Иваново детство (1962) DVDRip-AVC

2 | 2

1.09 ГБ

В этой теме нет новых непрочитанных сообщений. Иваново детство (1962) DVDRip

64 | 4

1.3 ГБ




Вы не можете начинать темы
Вы не можете отвечать на сообщения
Вы не можете редактировать свои сообщения
Вы не можете удалять свои сообщения
Вы не можете добавлять вложения

Перейти:  
Для Мосгорсуда, Роскомнадзора и рекламодателей: mosgorsud-torrent[собачка]yandex.ru
 Вход
ppkBB3cker v.2 © 2008-2014 @ PPK
[ Time : 2.346s | 18 Queries | GZIP : On ]

Торрент трекер RUTOR.IN, Не можете зайти на rutor.org? Какой новый адрес рутор? Какое зеркало рутор? Не работает rutor.org и зеркала? Тогда наш торрент специально для вас. Rutor.in неофициальное зеркало rutor. В случае если у Вас заблокирован rutor или вдруг Вы не можете на него зайти, то Вы без труда сможете скачать бесплатно и без рекламы последние новинки кино, игр, сериалов и прочего у нас, на Rutor.in. Не нужно использовать прокси, чтобы зайти на рутор, достаточно воспользоваться нашим ресурсом. Все новые фильмы, игры, сериалы, книги и музыка за 2013 и 2014 годы через торрент бесплатно. Скачивайте фильмы в хорошем качестве, игры для пк, xbox, playstation без регистрации. У нас вы найдете новые Зарубежные сериалы и Русские сериалы 2013, 2014, 2015 годов. Оставайтесь с нами, качайте любимые фильмы, игры, сериалы, книги и музыку.
cron