img image001 image001 image001 image001 image001 image001 image001 image001 image001 image001 image001 image001 image001 image001 image001

Planets Sun Sun Sun
Статистика раздачи
Автор: Nickolas3434 | Размер: 1.34 ГБ | Добавлен: 03 мар 2014
Раздают: 337    Качают: 45
Скачать торрент
Скачать торрент
Описание торрента

СообщениеДобавлено: 03 мар 2014 

Информация о фильме
Название: Июльский дождь
Год выхода: 1966
Жанр: Киноповесть, драма
Режиссер: Марлен Хуциев
В ролях: Евгения Уралова, Александр Белявский, Юрий Визбор, Евгения Козырева, Александр Митта, Илья Былинкин, Юрий Ильчук, Алла Покровская, Борис Белоусов, Виктория Бескова, Валентина Шарыкина, Виталий Беляков, Юрий Бордуков, Дарья Дружинина, Игорь Кашинцев, Георгий Молодцов, Ирина Васильева, Николай Шишов, Сергей Фрез, Галина Дашевская, Борис Гуров

О фильме:
Героям фильма — примерно тридцать. Очень часто именно в это время у людей наступает период пересмотра уже выработанных ранее позиций. К такому пересмотру и приходит Лена, героиня этого фильма. Ей многое надо обдумать заново.
Она начинает понимать, что прежние оценки поверхностны, все предстает перед ней в ином, более ясном и резком свете. Это порой связано с потерями. Лена теряет бывшего ей самым близким человека, который становится чужим и далеким.

Советская классика «Июльский дождь» — это «новая волна» за железным занавесом. После выхода фильм обвиняли в так называемом эстетизме, затянутости и претенциозности. Пройдя проверку временем, «Июльский дождь» Марлена Хуциева стал одним из самых популярных российских фильмов на Западе и одним из самых красивых у нас.

Страна: СССР
Студия: Мосфильм
Продолжительность: 01:43:11.280
Перевод: не требуется

Файл
Кодек: h.264
Качество: DVDRip-AVC
Видео: 720x432 (2.35:1) @ 1010x432 (анаморф), 25.000 fps, AVC, ~1672 Kbps, 0.215 bits/pixel
Звук: Русский, 48.0 KHz, AC3, 1 ch, 192 Kbps
Субтитры: нет

Общее
Уникальный идентификатор : 194213514786259333892110697179169483310 (0x921C2991497E7E56B334F40E0398EA2E)
Полное имя : D:FilmsIulskiy_dozhd.1966.DVDRip-AVC.mkv
Формат : Matroska
Версия формата : Version 4 / Version 2
Размер файла : 1,34 Гбайт
Продолжительность : 1 ч. 43 м.
Общий поток : 1866 Кбит/сек
Дата кодирования : UTC 2014-03-02 11:35:38
Программа кодирования : mkvmerge v6.7.0 ('Back to the Ground') 64bit built on Jan 8 2014 15:10:52
Библиотека кодирования : libebml v1.3.0 + libmatroska v1.4.1

Видео
Идентификатор : 1
Формат : AVC
Формат/Информация : Advanced Video Codec
Профиль формата : High@L4.1
Параметр CABAC формата : Да
Параметр ReFrames формата : 16 кадров
Идентификатор кодека : V_MPEG4/ISO/AVC
Продолжительность : 1 ч. 43 м.
Битрейт : 1672 Кбит/сек
Ширина : 720 пикселей
Высота : 432 пикселя
Соотношение сторон : 2,35:1
Соотношение сторон в оригинале : 2,35:1
Режим частоты кадров : Постоянный
Частота кадров : 25,000 кадров/сек
Цветовое пространство : YUV
Субдискретизация насыщенности : 4:2:0
Битовая глубина : 8 бит
Тип развёртки : Прогрессивная
Бит/(Пиксели*Кадры) : 0.215
Размер потока : 1,18 Гбайт (88%)
Библиотека кодирования : x264 core 138 r2358 9e941d1
Настройки программы : cabac=1 / ref=16 / deblock=1:0:0 / analyse=0x3:0x133 / me=umh / subme=10 / psy=1 / psy_rd=1.10:0.10 / mixed_ref=1 / me_range=32 / chroma_me=1 / trellis=2 / 8x8dct=1 / cqm=0 / deadzone=21,11 / fast_pskip=0 / chroma_qp_offset=-6 / threads=8 / lookahead_threads=1 / sliced_threads=0 / nr=0 / decimate=0 / interlaced=0 / bluray_compat=0 / constrained_intra=0 / bframes=8 / b_pyramid=2 / b_adapt=2 / b_bias=0 / direct=3 / weightb=1 / open_gop=0 / weightp=2 / keyint=250 / keyint_min=25 / scenecut=60 / intra_refresh=0 / rc_lookahead=60 / rc=2pass / mbtree=0 / bitrate=1672 / ratetol=1.0 / qcomp=0.60 / qpmin=0 / qpmax=69 / qpstep=4 / cplxblur=20.0 / qblur=0.5 / vbv_maxrate=50000 / vbv_bufsize=62500 / nal_hrd=none / ip_ratio=1.40 / pb_ratio=1.30 / aq=2:1.00
Default : Нет
Forced : Нет
Коэффициенты матрицы : BT.601

Аудио
Идентификатор : 2
Формат : AC-3
Формат/Информация : Audio Coding 3
Расширение режима : CM (complete main)
Параметр Endianness формата : Big
Идентификатор кодека : A_AC3
Продолжительность : 1 ч. 43 м.
Вид битрейта : Постоянный
Битрейт : 192 Кбит/сек
Каналы : 1 канал
Расположение каналов : Front: C
Частота : 48,0 КГц
Битовая глубина : 16 бит
Метод сжатия : С потерями
Размер потока : 142 Мбайт (10%)
Язык : Russian
Default : Да
Forced : Нет

Меню
00:00:00.000 : en:Chapter 01
00:06:19.800 : en:Chapter 02
00:12:15.600 : en:Chapter 03
00:21:39.000 : en:Chapter 04
00:28:34.200 : en:Chapter 05
00:33:55.800 : en:Chapter 06
00:39:32.400 : en:Chapter 07
00:47:52.800 : en:Chapter 08
00:56:16.800 : en:Chapter 09
01:11:19.800 : en:Chapter 10
01:23:23.400 : en:Chapter 11
01:30:01.800 : en:Chapter 12
01:36:01.800 : en:Chapter 13


Исходник R5. Крупный план, серия "Отечественное кино XX века".



Релиз от: Temperest



   Похожие торренты   Торрент   Размер 
В этой теме нет новых непрочитанных сообщений. Июльский дождь (1966) DVDRip

97 | 5

1.37 ГБ

В этой теме нет новых непрочитанных сообщений. Июльский дождь (1966) DVDRip-AVC от ExKinoRay

355 | 12

1.86 ГБ

В этой теме нет новых непрочитанных сообщений. Крылья (1966) DVDRip-AVC от Temperest

12 | 11

1.12 ГБ

В этой теме нет новых непрочитанных сообщений. Сделано в США / Made in U.S.A. (1966) DVDRip-AVC от Temperest

4 | 3

1.48 ГБ

В этой теме нет новых непрочитанных сообщений. Мужское-женское / Masculin féminin (1966) DVDRip-AVC от Temperest

120 | 6

2.17 ГБ

В этой теме нет новых непрочитанных сообщений. VA - Зайцев нет. Июльский Топ 100 (2015) MP3

1830 | 229

824.65 МБ

В этой теме нет новых непрочитанных сообщений. Сборник - Зайцев нет. Июльский 100 хитов интернета (2015) MP3

220 | 17

824.87 МБ




Вы не можете начинать темы
Вы не можете отвечать на сообщения
Вы не можете редактировать свои сообщения
Вы не можете удалять свои сообщения
Вы не можете добавлять вложения

Перейти:  
Для Мосгорсуда, Роскомнадзора и рекламодателей: mosgorsud-torrent[собачка]yandex.ru
 Вход
ppkBB3cker v.2 © 2008-2014 @ PPK
[ Time : 0.180s | 15 Queries | GZIP : Off ]

Торрент трекер RUTOR.IN, Не можете зайти на rutor.org? Какой новый адрес рутор? Какое зеркало рутор? Не работает rutor.org и зеркала? Тогда наш торрент специально для вас. Rutor.in неофициальное зеркало rutor. В случае если у Вас заблокирован rutor или вдруг Вы не можете на него зайти, то Вы без труда сможете скачать бесплатно и без рекламы последние новинки кино, игр, сериалов и прочего у нас, на Rutor.in. Не нужно использовать прокси, чтобы зайти на рутор, достаточно воспользоваться нашим ресурсом. Все новые фильмы, игры, сериалы, книги и музыка за 2013 и 2014 годы через торрент бесплатно. Скачивайте фильмы в хорошем качестве, игры для пк, xbox, playstation без регистрации. У нас вы найдете новые Зарубежные сериалы и Русские сериалы 2013, 2014, 2015 годов. Оставайтесь с нами, качайте любимые фильмы, игры, сериалы, книги и музыку.