img image001 image001 image001 image001 image001 image001 image001 image001 image001 image001 image001 image001 image001 image001 image001

Planets Sun Sun Sun
Статистика раздачи
Автор: Nickolas3434 | Размер: 745.43 МБ | Добавлен: 06 мар 2014
Раздают: 57    Качают: 28
Скачать торрент
Скачать торрент
Описание торрента

СообщениеДобавлено: 06 мар 2014 

Страна: СССР
Производство: Мосфильм

Жанр: детектив
Год выпуска: 1966
Продолжительность: 01:33:25

Перевод: не требуется
Оригинальная аудиодорожка: русский
Cубтитры: нет

Режиссер: Анатолий Бобровский

В ролях:
Владимир Заманский, Владимир Смирнов, Георгий Совчис, Анатолий Юшко, Николай Гриценко, Виктор Павлов, Лионелла Пырьева, Алексей Эйбоженко, Геннадий Фролов, Владимир Осенев , Константин Тыртов, Светлана Коновалова, Михаил Погоржельский, Аркадий Трусов, Елена Вольская, Владлен Паулус, Лидия Драновская...

Описание:
Группе советских контрразведчиков удается выследить и обезвредить шпионов, засланных на территорию нашей страны для получения секретной информации о строительстве в Приозерске крупного военно-промышленного комплекса...





Исходник: DVВ
Тип релиза: SATRip
Контейнер: AVI

Видео: 608x288 (2,111:1), 25 fps, XviD ~ 914 kbps avg, 0.209 bit/pixel
Аудио: 48 kHz, Dolby Digital AC3 2.0, 192 kbps

Раздача от:
Общее
Полное имя : Chelovek.bez.pasporta.1965.SATRip_[New-team]_by_AVP_Studio.avi
Формат : AVI
Формат/Информация : Audio Video Interleave
Размер файла : 745 Мбайт
Продолжительность : 1 ч. 33 м.
Общий поток : 1116 Кбит/сек
Программа кодирования : VirtualDubModRus 1.5.10.2 (build 2542/release)
Библиотека кодирования : VirtualDubMod build 2542/release

Видео
Идентификатор : 0
Формат : MPEG-4 Visual
Профиль формата : Advanced Simple@L5
Параметр BVOP формата : 1
Параметр QPel формата : Нет
Параметр GMC формата : Без точки перехода
Параметр матрицы формата : Выборочная
Идентификатор кодека : XVID
Идентификатор кодека/Подсказка : XviD
Продолжительность : 1 ч. 33 м.
Битрейт : 914 Кбит/сек
Ширина : 608 пикселей
Высота : 288 пикселей
Соотношение сторон : 2,111
Частота кадров : 25,000 кадров/сек
Цветовое пространство : YUV
Субдискретизация насыщенности : 4:2:0
Битовая глубина : 8 бит
Тип развёртки : Прогрессивная
Метод сжатия : С потерями
Бит/(Пиксели*Кадры) : 0.209
Размер потока : 611 Мбайт (82%)
Библиотека кодирования : XviD 73

Аудио
Идентификатор : 1
Формат : AC-3
Формат/Информация : Audio Coding 3
Расширение режима : CM (complete main)
Параметр Endianness формата : Big
Идентификатор кодека : 2000
Продолжительность : 1 ч. 33 м.
Вид битрейта : Постоянный
Битрейт : 192 Кбит/сек
Каналы : 2 канала
Расположение каналов : Front: L R
Частота : 48,0 КГц
Битовая глубина : 16 бит
Метод сжатия : С потерями
Размер потока : 128 Мбайт (17%)
Выравнивание : Разделение по промежуткам
Продолжительность промежутка : 40 мс. (1,00 видеокадр)
Время предзагрузки промежутка : 500 мс



На 30-й минуте фильма Горева (Анна Горюнова) просит другую работницу почты: «Клавочка, подмени меня!». В кадре появляется Клавочка, и зритель узнаёт в ней Евгению Ханаеву, которой в 1987 году предстоит стать Народной артисткой СССР. Как и другие исполнители «проходных» ролей, например, Фёдор Одиноков, в титрах она не указана. С этого позднего кинодебюта для театральной актрисы Е.Н. Ханаевой началась карьера мастера киноэпизода.



   Похожие торренты   Торрент   Размер 
В этой теме нет новых непрочитанных сообщений. Человек без паспорта (1986) SATRip-AVC от New-Team

50 | 36

1.46 ГБ

В этой теме нет новых непрочитанных сообщений. Выкуп (1986) SATRip от New-Team

42 | 9

744.93 МБ

В этой теме нет новых непрочитанных сообщений. Выкуп (1986) SATRip-AVC от New-Team

24 | 10

743.88 МБ

В этой теме нет новых непрочитанных сообщений. Я сделал все, что мог (1986) SATRip-AVC от New-Team

47 | 11

744.67 МБ

В этой теме нет новых непрочитанных сообщений. Я сделал все, что мог (1986) SATRip от New-Team

14 | 13

745.54 МБ

В этой теме нет новых непрочитанных сообщений. Тайна Снежной Королевы [01-02 из 02] (1986) SATRip от New-Team

103 | 6

2.19 ГБ

В этой теме нет новых непрочитанных сообщений. Девушка без паспорта / A Lady Without Passport (1950) DVDRip от egoleshik | A

23 | 9

1.2 ГБ




Вы не можете начинать темы
Вы не можете отвечать на сообщения
Вы не можете редактировать свои сообщения
Вы не можете удалять свои сообщения
Вы не можете добавлять вложения

Перейти:  
Для Мосгорсуда, Роскомнадзора и рекламодателей: mosgorsud-torrent[собачка]yandex.ru
 Вход
ppkBB3cker v.2 © 2008-2014 @ PPK
[ Time : 0.037s | 16 Queries | GZIP : Off ]

Торрент трекер RUTOR.IN, Не можете зайти на rutor.org? Какой новый адрес рутор? Какое зеркало рутор? Не работает rutor.org и зеркала? Тогда наш торрент специально для вас. Rutor.in неофициальное зеркало rutor. В случае если у Вас заблокирован rutor или вдруг Вы не можете на него зайти, то Вы без труда сможете скачать бесплатно и без рекламы последние новинки кино, игр, сериалов и прочего у нас, на Rutor.in. Не нужно использовать прокси, чтобы зайти на рутор, достаточно воспользоваться нашим ресурсом. Все новые фильмы, игры, сериалы, книги и музыка за 2013 и 2014 годы через торрент бесплатно. Скачивайте фильмы в хорошем качестве, игры для пк, xbox, playstation без регистрации. У нас вы найдете новые Зарубежные сериалы и Русские сериалы 2013, 2014, 2015 годов. Оставайтесь с нами, качайте любимые фильмы, игры, сериалы, книги и музыку.